<?xml version="1.0" standalone="no"?>
<!DOCTYPE svg PUBLIC "-//W3C//DTD SVG 1.1//EN" "http://www.w3.org/Graphics/SVG/1.1/DTD/svg11.dtd" >
<svg xmlns="http://www.w3.org/2000/svg">
<metadata>Generated by IcoMoon</metadata>
<defs>
<font id="icomoon" horiz-adv-x="1024">
<font-face units-per-em="1024" ascent="960" descent="-64" />
<missing-glyph horiz-adv-x="1024" />
<glyph unicode="&#x20;" horiz-adv-x="512" d="" />
<glyph unicode="&#xe600;" glyph-name="uniE600" horiz-adv-x="951" d="M804.571 393.143v-274.286q0-14.857-10.857-25.714t-25.714-10.857h-219.429v219.429h-146.286v-219.429h-219.429q-14.857 0-25.714 10.857t-10.857 25.714v274.286q0 0.571 0.286 1.714t0.286 1.714l328.571 270.857 328.571-270.857q0.571-1.143 0.571-3.429zM932 432.571l-35.429-42.286q-4.571-5.143-12-6.286h-1.714q-7.429 0-12 4l-395.429 329.714-395.429-329.714q-6.857-4.571-13.714-4-7.429 1.143-12 6.286l-35.429 42.286q-4.571 5.714-4 13.429t6.286 12.286l410.857 342.286q18.286 14.857 43.429 14.857t43.429-14.857l139.429-116.571v111.429q0 8 5.143 13.143t13.143 5.143h109.714q8 0 13.143-5.143t5.143-13.143v-233.143l125.143-104q5.714-4.571 6.286-12.286t-4-13.429z" />
<glyph unicode="&#xe601;" glyph-name="uniE601" horiz-adv-x="1590" d="M1431.484 879.241c-234.018 127.681-386.321-130.321-386.321-130.321s-152.303 258.002-386.321 130.321c-482.736-327.703 390.281-912.725 390.281-912.725s853.333 613.285 382.362 912.725zM71.111 685.75h93.025v-537.168c0-81.442-31.266-139.014-93.798-172.76l-69.245 67.971c21.458 7.487 38.502 20.617 51.109 39.344s18.91 40.55 18.91 65.422v537.19zM115.075 883.564c15.337 0 28.444-5.37 39.344-16.111s16.361-23.598 16.361-38.593c0-15.679-5.211-28.809-15.588-39.344-10.399-10.559-23.438-15.838-39.094-15.838-14.655 0-27.602 5.439-38.844 16.361-11.241 10.9-16.862 23.848-16.862 38.844 0 14.313 5.53 27.011 16.612 38.070 11.059 11.059 23.757 16.612 38.070 16.612zM286.811 679.105v19.934c15.337 14.996 26.078 29.81 32.199 44.464 6.144 14.655 9.717 34.748 10.741 60.302-36.113 11.583-54.181 33.906-54.181 66.947 0 18.728 6.212 34.748 18.66 48.037 12.425 13.289 27.17 19.934 44.214 19.934 20.776 0 37.82-9.193 51.109-27.602s19.934-41.916 19.934-70.542c0-38.161-10.9-71.634-32.722-100.443-21.8-28.74-51.792-49.106-89.953-61.030z" />
<glyph unicode="&#xe602;" glyph-name="uniE602" horiz-adv-x="4396" d="M24.051 929.411h138.45v-967.155h-138.45v967.155zM732.974 929.411h138.45v-967.155h-138.45v967.155zM1223.129 669.998c0 75.645 28.383 139.868 85.15 192.67s126.241 79.216 208.397 79.216c80.765 0 148.953-26.178 204.59-78.533 55.611-52.355 83.417-116.815 83.417-193.352 0-86.252-40.146-157.512-120.464-213.78 89.534-51.725 134.302-127.947 134.302-228.615 0-79.925-29.066-145.986-87.224-198.157s-131.545-78.27-220.16-78.27c-87.696 0-161.319 26.677-220.843 80.030-59.55 53.327-89.298 119.257-89.298 197.79 0 98.357 45.686 174.106 137.085 227.223-41.091 33.214-70.525 66.297-88.274 99.275-17.802 32.978-26.677 71.129-26.677 114.504zM1678.677 221.88v13.837c0 44.321-15.833 80.423-47.419 108.334-31.613 27.911-72.599 41.905-122.88 41.905-49.388 0-89.666-14.073-120.806-42.22s-46.736-64.617-46.736-109.384 15.911-81.237 47.76-109.384 73.15-42.22 123.93-42.22c48.469 0 88.274 12.918 119.414 38.781s46.736 59.261 46.736 100.352zM1666.888 665.639c0 41.984-14.441 76.59-43.271 103.844-28.83 27.228-65.405 40.855-109.726 40.855-44.767 0-81.474-13.391-110.067-40.146-28.619-26.782-42.929-61.177-42.929-103.161 0-40.146 15.124-74.542 45.345-103.161s66.56-42.929 109.043-42.929c41.984 0 77.771 14.205 107.31 42.588 29.512 28.383 44.295 62.411 44.295 102.111zM2618.132 941.883c88.615 0 161.871-46.5 219.819-139.5 57.895-93 86.882-211.049 86.882-354.12 0-146.773-28.987-266.082-86.882-357.927-57.948-91.845-133.041-137.767-225.359-137.767-93.683 0-168.934 45.003-225.7 135.010s-85.15 209.316-85.15 357.927c0 146.773 29.302 266.187 87.933 358.269s134.774 138.109 228.457 138.109zM2619.523 810.338h-6.932c-53.064 0-95.206-32.663-126.346-97.963-31.193-65.326-46.736-153.81-46.736-265.505 0-114.452 15.229-204.222 45.686-269.312s72.468-97.621 126.005-97.621 95.757 32.532 126.687 97.621 46.395 153.469 46.395 265.163c0 112.141-14.887 201.465-44.636 267.92-29.801 66.455-69.816 99.696-120.123 99.696zM3327.055 941.883c88.615 0 161.871-46.5 219.819-139.5 57.895-93 86.882-211.049 86.882-354.12 0-146.773-28.987-266.082-86.882-357.927-57.948-91.845-133.041-137.767-225.359-137.767-93.683 0-168.934 45.003-225.7 135.010s-85.15 209.316-85.15 357.927c0 146.773 29.302 266.187 87.933 358.269s134.774 138.109 228.457 138.109zM3328.446 810.338h-6.932c-53.064 0-95.206-32.663-126.346-97.963-31.193-65.326-46.736-153.81-46.736-265.505 0-114.452 15.229-204.222 45.686-269.312s72.468-97.621 126.005-97.621 95.757 32.532 126.687 97.621 46.395 153.469 46.395 265.163c0 112.141-14.887 201.465-44.636 267.92-29.801 66.455-69.816 99.696-120.123 99.696zM4035.978 941.883c88.615 0 161.871-46.5 219.819-139.5 57.895-93 86.882-211.049 86.882-354.12 0-146.773-28.987-266.082-86.882-357.927-57.948-91.845-133.041-137.767-225.359-137.767-93.683 0-168.934 45.003-225.7 135.010s-85.15 209.316-85.15 357.927c0 146.773 29.302 266.187 87.933 358.269s134.774 138.109 228.457 138.109zM4037.369 810.338h-6.932c-53.064 0-95.206-32.663-126.346-97.963-31.193-65.326-46.736-153.81-46.736-265.505 0-114.452 15.229-204.222 45.686-269.312s72.468-97.621 126.005-97.621 95.757 32.532 126.687 97.621 46.395 153.469 46.395 265.163c0 112.141-14.887 201.465-44.636 267.92-29.801 66.455-69.816 99.696-120.123 99.696z" />
<glyph unicode="&#xe603;" glyph-name="uniE603" horiz-adv-x="512" d="M30.707 68.198c-13.722-13.875-13.722-36.25 0-50.125s35.891-13.875 49.613 0l400.896 404.838c13.722 13.875 13.722 36.301 0 50.125l-400.896 404.89c-13.722 13.875-35.891 13.875-49.613 0s-13.722-36.25 0-50.125l365.568-379.802-365.568-379.802z" />
<glyph unicode="&#xe604;" glyph-name="uniE604" horiz-adv-x="1088" d="M32.832 887.296v-11.584c0-33.28 6.912-48.96 56.256-48.96h0.256l357.376-492.16v-247.296l207.744-144.96v392.32l356.864 492.416c46.464 0.64 58.112 16.256 58.112 48.704v11.52c0 19.84-6.208 30.4-20.608 36.224h-996.992c-13.76-5.824-19.008-16.448-19.008-36.224zM874.624 826.752l-78.72-108.928-366.080-149.76-192.768 258.688h637.568z" />
<glyph unicode="&#xe605;" glyph-name="uniE605" horiz-adv-x="768" d="M390.056 938.667c-205.548 0-372.212-166.663-372.212-372.252 0-205.631 292.356-609.081 372.252-609.081 59.084 0 372.293 403.451 372.293 609.081-0.041 205.589-166.704 372.252-372.335 372.252zM388.38 383.232c-104.471 0-189.111 84.64-189.111 189.111s84.64 189.111 189.111 189.111 189.111-84.64 189.111-189.111-84.64-189.111-189.111-189.111z" />
<glyph unicode="&#xe606;" glyph-name="uniE606" d="M512-64c-282.752 0-512 229.248-512 512s229.248 512 512 512c282.752 0 512-229.248 512-512s-229.248-512-512-512zM926.976 490.912c0.832 0.416 1.28 1.12 1.6 2.24 0.672-3.552 2.304-6.688 4.928-8.992 0.064-0.32-0.096-0.256 0.064-0.704 0.256 0 0.448 0.192 0.672 0.192 2.688-2.176 6.016-3.648 9.76-3.648 5.76 0 10.56 3.2 13.376 7.712 0.192-0.224 0.512-0.512 0.672-0.768-0.032 0.512-0.096 1.024-0.16 1.536 1.248 2.272 2.112 4.768 2.112 7.52 0 8.832-7.2 16-16 16-5.632 0-10.304-3.072-13.184-7.424-0.128 0.096 0 0.48-0.352 0.352 0.416 1.216-0.704 4.32-2.464 7.648v-16.576c0-1.824-0.512-3.456-1.024-5.088zM191.744 495.712c0 4.832-11.008 13.056-13.856 13.056 0 0.864-4.48 10.72-6.176 10.72 0 3.328-11.68 18.272-13.536 11.744-1.216-4.224 8.928-9.92 8.928-14.816 1.888 0 9.824-15.040 11.392-17.664 17.344-29.312-12.96-9.28-12.96 3.136-3.872 1.92-9.984 16.672-9.984 20.704-2.272 1.824-8.992 16.064-8.448 16.064 0 9.344-5.152 13.824-15.392 13.824-0.48 0.928-9.088 13.024-9.248 13.024 0 3.84-6.912 15.744-10.752 17.632 0 7.968-4.096 17.792-2.272 26.048 0 8.672-0.448 18.496-3.392 27.392-26.72-57.376-42.048-121.12-42.048-188.576 0-193.312 122.688-357.568 294.272-420.384 0.192 15.872 1.376 34.88 4.992 34.88 0 2.368 2.016 12.288 3.84 12.288 0 6.080 0.736 13.408 0 20.704-2.272 4.576 3.008 10.432 4.608 17.632 8.864 4.448 2.592 49.056 9.28 49.056 0 22.304 4.992 35.296 1.504 55.968 1.696 0-10.080 12.512-9.984 12.288-11.296 0-19.2 18.112-19.2 26.048-1.088 3.488-3.872 8.704-3.872 13.024 2.592 0-16.16 27.392-16.16 26.848-9.92 5.504 0.544 13.184 1.536 22.208-8.608 2.848 0.096 26.080 3.84 26.080 0.384 2.944 1.92 4.96 4.64 6.112 1.92-7.648 10.848 3.808 3.84 3.808 0 5.056-0.576 15.872 0 18.4 0 7.808-6.912 23.104-12.288 6.912-5.76 2.848-20.288 2.336-21.536 11.488 0.896 4.512-8.288 13.728-11.52 15.328 3.008 7.872-15.584 18.4-22.304 18.4 0 1.696-3.552 0.928-4.608 3.072-6.848 0-8.416 9.216-16.16 9.216-8.928 0-17.92 6.112-26.144 6.112-2.752 5.472-15.52 3.328-18.464 9.216-6.688 0-9.312 12.672-9.504 17.344-0.288 5.76-4.864 25.664-12.864 25.664zM839.936 752.512c-0.064-0.192 0.064-0.064-0.256-0.704 0.48 0 1.056-0.544 1.6-0.768-0.48 0.48-0.896 0.96-1.344 1.472zM849.568 741.92c1.12-2.176 1.952-4.192 1.696-5.44 1.12-0.032 1.664 0.576 2.56 0.8-1.376 1.568-2.88 3.040-4.256 4.64zM877.376 596.128c0.512 13.824-11.52 11.52-15.328 19.2-3.968 0-5.408 3.072-10.784 3.072-3.488 1.184-6.24 0.352-8.256-2.496-8.224-3.136-3.264 4-9.44 4 0.288 7.904-2.848 10.080-11.552 9.216-4.992-11.264-12.672-18.016-11.52-30.688 3.68-0.832 3.040-1.664 2.304-5.344 4.896-0.256 34.592 1.536 34.592 4.608 1.024 0 6.176-10.592 6.176-1.536 4.128 0 6.304-9.696 16.16-6.88 0-1.984 16.448 6.848 7.648 6.848zM878.944 432.832c0.576 2.816-1.408 4.064-3.072 6.912 4.384 0-13.856 33.824-13.856 39.104-2.784 1.376-6.336 11.040-6.976 14.56-3.744 2.496-7.616 10.688-9.216 15.328-3.808 2.528-13.088 13.856-14.592 19.168 5.504-0.608 13.824-1.728 13.824 5.376-3.712 0-4.256 4.576-0.736 4.576-1.152 4.704 2.496 8.096 3.296 11.776 0.96 4.448 2.848 11.296 2.848 16.608-5.28 0-6.56-0.896-10.752-2.304 0-3.104-9.376 0.768-10.752 0.768-2.016 4.032-16.64-5.248-20.736 3.072-6.624 5.984-4.832 10.592-6.976 19.040-1.088 4.288-6.944 4.544-10.496 5.248-10.016 1.952-2.784-11.936-3.328-15.104 6.144 0-3.872-7.616-3.872-11.488-10.368 2.24-6.912 13.792-13.024 16.864-1.824 3.072-0.384 5.376-4.64 5.376 0 4.096 2.176 11.52-2.304 13.024 0 1.984-8.704 2.784-9.984 5.376-5.504 0-18.304 20.8-22.24 13.792-2.464-4.48 2.080-5.568 3.008-9.216 7.968 1.568 7.2-13.12 16.928-11.488 0-2.048 0.256-4.128 0.736-6.144 7.2 1.696 6.368-5.344 9.984-5.344-2.624-3.488-10.944 5.568-8.672-2.048 1.312-4.416 0.576-8.192-5.152-12.512 0 4.768-0.384 17.632-5.376 17.632-3.392 6.784-13.472 5.152-17.728 11.488-3.456 0-4.8 10.752-10.752 11.488-1.12-1.568-5.312-3.072-6.944-3.072-3.232-6.496-21.504-0.672-21.504-1.536-0.288-0.064-10.24-24.384-10.816-27.584-1.12-6.88-6.656-7.008-8.32-13.536-0.832-3.264-20.896-1.728-20.896-4.128-8.672 2.88-16.16 8.96-16.16 18.4-0.704 0 1.632 24.096 3.104 27.616 1.76-0.48 2.112-1.088 3.104-3.072 5.312 1.984 17.696-1.312 17.696 4.608 5.152-0.128 6.688-2.176 4.608-6.144 4.8-0.896 13.088-2.112 13.088 4.608-2.816 0-3.104 0.256-3.104 3.072 9.216 9.568-6.912 18.208-6.912 22.976-3.264 1.088-9.92 8.16-5.184 5.504 4-2.208 18.624-6.784 12.864 2.944 0.384 0.128 0.64 0.384 0.736 0.736 1.632-1.152 8.512-8.224 8.512-1.536 1.888 0 9.184 4.608 3.072 4.608 0.576 3.456 0.448 6.336 0.736 8.448 9.76-5.248 4.32 3.584 9.248 6.88 0-6.368 5.248 3.072 8.448 3.072 3.808 5.664 12.512 1.28 14.624 7.68-4.704 1.536-3.84 13.312-3.84 17.6 5.664-0.928 11.968 7.648 12.832 1.76 0.32-2.272 0.608-8.544 1.76-9.408 8.416-4.416 6.176 2.528 6.176 6.88-2.816 0-6.56 9.856-6.944 14.592-2.304-0.32-6.016-1.28-6.944-3.040-8.384 0-14.080 3.040-20.736 3.040-0.512 1.024-8.512 9.984-7.68 9.984-4.672 8.032 4.672 5.696 6.144 6.080 0 7.616 31.712 6.272 33.088 18.432-10.432 0 10.752 17.664 10.752 17.6 7.072 6.048 10.816 11.264 19.616 11.936 3.712 0.256 44.992 11.648 44.992 6.496 1.664-0.064 7.168-0.128 12.864-0.32-79.904 74.304-186.688 120.064-304.416 120.064-114.016 0-217.792-42.944-296.864-113.12 0.704-1.6 1.248-3.136 1.216-4.224 4.192 0.288 10.208 2.976 11.552-2.336-2.080 0.032-4.16 0.288-6.144 0.8 1.472-11.872-5.184-4.608-10.752-4.608 0 0.288-2.464 1.28-5.088 1.984-1.696-1.6-3.488-3.104-5.184-4.704 0.192-0.512-0.096-0.544 0.224-1.12 1.792 0 0.864-2.784 5.984-4.48 5.92-2.016 12.416-3.136 18.656-4.128 5.056-0.8 7.968 0.928 12.288 0.928 0 0.64 10.56 5.344 3.104 5.344 1.024 4.224-0.864 5.28-5.408 5.344 0.384 4.48 11.040 1.536 15.392 1.536 3.328 5.6 0.096 4.928 3.040 10.016 3.52 6.24 7.712 0.832 10.016 6.816 3.488-1.28 6.592-3.168 7.712-7.584 2.784-2.304 16.928-23.168 16.928-8.416 5.056-1.696 7.584-11.168 7.68-16.128 9.184 1.344 9.984 8.224 9.984 15.36 2.112 0-0.768 3.424-0.768 4.608 3.424 1.248 7.712-3.264 7.712 1.504 1.472 0 1.536-1.472 1.536-3.072 4.768-0.928 7.84 0.544 10.752-0.48 2.016-0.704 0.992-11.168 0.064-14.848-1.152-4.672-10.080-4.736-10.080-6.912-10.112-7.552 11.936-11.488 15.392-16.096-2.080 0-9.984 1.024-9.984 1.504-4.992 0-17.088-5.28-21.536-1.504 6.208 0 8.288 7.456 9.248 14.56-5.728 2.144-12.48-1.376-14.080-7.072-2.688-9.408-8.928 0.384-12.064-5.952-1.216-0.384-12.32-5.536-12.32-3.808-12.48-1.76-9.216-12.352-9.216-23.776 4.96-2.976 15.040-11.456 14.592-16.096 11.2-1.984 15.296-3.168 25.376-4.608 0.832-1.632 4.16-3.168 6.176-3.808 0-6.592 5.984-5.408 11.52-5.408 0 8.416 9.792-7.008 10.752-9.952-1.344 0 2.304-8.608 3.072-11.52-1.536 0.544-2.016 0-1.536-1.536 4.864-1.792 12.576-1.28 13.856 3.84-4.672 0-3.104 5.344-3.104 8.448-4.8 3.2-4.064 9.376 0.768 10.72 0-4.352 15.84 2.72 6.912 6.112 2.176 4.896 3.648 12.416 0.096 16.672-2.272 2.688-5.12 0-6.24 4.032 6.048 1.504 1.6 13.024 1.536 18.4 1.92 0.736 6.912-1.216 6.912 0 5.92 0 15.776-7.488 19.232 1.568 9.888-4.512 2.016-8.8 12.32-5.376 0-2.432 11.616-13.792 13.088-13.792 0-0.544-0.288-3.84 2.272-3.84 0-2.464-1.536 1.408-1.536-3.040 1.44-0.16 9.248-1.568 9.248 1.504 4.96 0 8.448 6.080 8.448 10.72 3.104 2.016 8.544-16.864 12.288-16.864 2.752-4.288 11.552-10.528 11.552-14.56 1.856-1.888 3.808-1.376 3.808-6.912 2.336 0 6.944 9.184 6.944 0.768 2.176 0 8.512-4.672 9.248-8.416-5.536 0-0.288-5.376-3.136-5.376 0-5.312-11.872-1.088-14.56-0.768-3.68-16.48-25.888-4.64-39.328-8.896-7.072-2.24-20.736-17.824-21.472-25.6 8.576-0.096 12.352 7.424 20 9.984 6.24 0 7.456 3.776 13.088 5.344 0-1.568 1.536-0.736 1.536-2.304-10.944 0-4.288-7.072-1.088-12.224 1.984-3.2 4.256-4.736 6.784-5.728-1.056-1.856-1.92-3.712-2.592-5.792 0-0.032-0.032 0-0.032-0.032-2.080-0.704-6.144-2.208-6.944-3.84-12.384-1.376-6.272-0.544-5.44 2.432 0.448-1.056 4.896-0.096 4.704-0.128-0.736 3.712-1.856 3.2-0.768 5.344-6.72 0-9.984-3.072-15.392-3.072-0.896-1.824-5.6-6.144-7.68-6.144-1.568-4.736-5.12-13.344-9.248-16.096 0 1.248-10.944-6.88-9.984-6.88-2.432-3.936-5.088-3.808-6.176-9.952-0.736-0.384-3.84-10.656-3.84-12.256-4.768-3.168-6.528-16.096-14.624-16.096-4.96-9.856-13.856-8.544-13.856-21.472 3.008-3.072 4.16-16.672 5.088-21.024 1.152-5.408 2.944-11.040-4.288-11.168-0.512 0.8-5.568 8.448-4.64 8.448 0 3.168-3.872 13.312-6.144 16.48-3.040 4.256-8.672-0.672-13.088 1.184-1.888 3.776-14.656 4.608-19.2 4.608 0.736-2.848 2.816-3.744 3.072-6.912-3.776-1.536-5.952-3.264-9.856-2.72-6.688 0.928-5.888 6.144-13.248 5.408-11.776-1.184-20-10.944-20-22.624-1.312 0-1.312-23.008 0-23.008 0-6.496 5.376-11.2 5.376-16.096 5.216 0 11.072-11.488 16.16-11.488 0.576-4.064-2.56-4.704 6.144-4.64 0 0.448 4.736 2.976 5.376 6.144-6.016 1.472-0.032 9.216 3.84 10.72 0-5.472 7.68 1.824 7.68 2.304 0.864 0.352 8.48 3.072 8.48 3.072 0 6.208 5.792-0.608 1.536-3.072-4.16 0-3.84-6.912-6.144-6.912-0.992-4.928-2.944-9.216-4.096-14.016-1.472-5.92 3.328-6.528 1.792-12.064 6.112-1.152 12.288-0.032 18.464 0 0.032 1.088-0.192 2.144-0.768 3.072 8.928 0 0.768-16.864 6.176-16.864 0-6.368 3.072-11.328 3.072-15.328 4.16-2.752 6.656-6.432 5.376-11.488 5.12-0.672 16.128-1.984 16.128 4.608 7.776 0 8.32-5.28 7.744-10.72 15.488 0 5.792 15.328 12.256 15.328 0.608 2.528 1.664 2.976 3.168 1.312 3.168-1.696 5.568 3.168 8.096 4.704 0.8 0.544 3.616 2.176 4.128 2.176 2.176-1.312 2.368-0.928 3.328-2.4 4.224 0.032 8.48 2.4 12.096 4.896 5.536-0.672 3.744-12.576 14.112-13.312 4.16-0.288 13.792-1.44 17.376 1.024 0.896 0.608 4.192-2.080 4.544-3.232 3.456 0 3.2-3.008 4.672-2.944 0.352-0.672 0.864-0.928 1.568-0.736 0.448-1.312 3.2-1.696 4.64-5.344 0-3.328 6.912-3.904 6.912-6.112 4.96-2.496-1.696-3.168 5.92-5.472 4.192-1.312 8.064-3.424 12.576-3.744 1.44 5.472 6.112-0.736 8.48-0.736 1.216-2.496 1.856-0.608 3.040-3.072 7.136-5.952 2.432-3.648 5.376-9.984 3.424-2.24 4.512-10.048 5.44-14.56-2.752 0-0.8-10.528-0.8-11.52-3.328 0 8.512-6.304 8.512 1.568 4.864-0.8 8.064-6.112 11.52-6.112-2.016-4.64 5.376-8.128 5.376-0.8 7.296-0.736 5.344-11.616 4.64-15.328 5.408 0 6.976 3.008 11.584 3.584 4.992 3.168 10.56 5.472 16.864 5.472 17.696 0 32-14.304 32-32 0-15.936-11.872-28.576-27.136-31.008-2.048-2.336-3.904-4.352-4.032-4.352 0-1.536-0.352-16.832-0.8-16.832 0-3.072-2.336-19.936-4.608-19.936 0-8.672-5.664-10.24-7.68-18.4-4.672-3.456-17.312-9.216-19.264-13.024-3.616 0-6.304-3.072-9.984-3.072-0.512-1.056-8.352-8.448-6.944-8.448-0.576-5.44 0.416-18.24-2.528-21.824-1.984-2.368-4.832-2.112-3.584-5.824-4.32 0 0.256-3.072-6.56-3.072-4.288 0-11.936-6.112-12.16-11.296-0.288-6.336-1.984-10.912-7.424-14.784 0-2.176-9.984-2.816-9.984-8.448 0.928 0 0-10.432 0-11.488-2.976 0.096-10.272-2.88-11.52-5.344-10.048 0-8.832-1.024-15.36-5.376 0-1.344-0.928-6.112-2.304-6.112 0-7.776-5.536-0.704-10.016-4.64 1.76 0 4-7.648 3.072-7.648 0-6.752-4.192-7.328-8.448-12.288-2.016-1.344-3.936-6.912-5.376-6.912 0-4.544-2.272-8.672-2.272-13.024 0.96 0 0.064-1.952 0.736-3.776 2.144 0.608 2.208 3.040 3.072 3.040 0 3.84 6.112-2.272 2.304-2.272-3.168-4.8-6.592-4.896-8.48-11.52-1.92 0-3.584-1.856-4.992-4.032 37.696-10.272 77.248-16.288 118.272-16.288 157.568 0 295.872 81.536 375.744 204.576 0.48 11.328 2.24 22.144 3.488 25.888 3.136-2.304 5.472-6.624 7.68 0-5.536 1.088-4.192 3.008-2.304 7.648 2.112-1.28 6.368-2.848 9.824-2.624 1.056 1.984 1.888 4.096 2.944 6.080-3.136 2.432 1.184 8.736 2.688 5.664 0.8 1.536 1.504 3.136 2.24 4.672-0.352 0.096-0.256-0.128-0.768 0.032 0 2.784 0.512 2.432 2.336 3.84 0.032-0.288 0-0.288 0.064-0.544 27.936 58.464 44.064 123.648 44.064 192.768 0 2.272-0.32 4.448-0.352 6.72-0.832-3.136-2.4-6.528-4.608-7.296 0-2.016-22.88-11.968-21.504-16.096-4.032 0-18.176-4.032-20.768-9.184-2.848 0-14.336-4.064-15.392-6.144-14.272-0.032-11.552 16.832-18.432 16.832zM944 608h-16.992c-0.128 0.16-0.256 0.192-0.384 0.416-0.864 0-4.48 8.128-3.072 9.984 1.376 0 2.016-0.128 2.752-0.192-1.44 3.52-3.008 6.976-4.576 10.464-3.456-2.368-6.496-5.376-11.264-5.664 0-1.312-6.816-14.56 0-14.56 0-0.256 0.128-0.448 0.192-0.672-8.16-0.768-14.656-7.424-14.656-15.776 0-8.832 7.168-16 16-16h6.304c0.384-2.912 1.952-5.44 7.552-6.688 1.76-7.392 14.944-10.016 16.928-2.272-5.568 0-3.744 5.344-3.264 8.96h4.48c8.8 0 16 7.168 16 16s-7.2 16-16 16zM897.376 399.936c1.12-0.064 8.512 0.128 8.512 1.44 6.688 0 15.744 0.928 22.304 3.104 0-9.92-8.352-15.456-6.944-25.312-5.536 0-3.104-5.696-3.104-7.648-3.584-2.208-4.128-6.24-8.448-8.448 0-4.448-9.984-11.808-12.928-15.616-3.328-4.256-13.344-11.648-14.656-17.056 0.352 1.28-18.304-19.424-13.952-19.424 0-3.872-5.248-34.496 1.536-34.496 0-2.688 5.792-28.384 2.272-28.384 0-8.256-5.376-13.312-5.376-19.904-2.624-1.792-6.368-2.784-7.68-5.408-4.704 0-6.976-9.984-9.216-9.984 0-10.656-3.104-18.56-3.104-30.656 0.864 0-6.144-17.248-6.144-18.368-5.664-3.808-20-17.472-20-24.576 0 0-9.984-14.016-11.52-16.096-3.008 0-26.176-4.352-26.176-6.144-4.928 0-17.664-3.872-20.736 0.768 0 4.864-2.656 11.040-3.072 17.664-2.368 0-2.752 9.952-5.376 9.952 0 2.112-14.688 31.456-12.32 31.456 0 3.040-2.624 13.024-3.072 13.024 0 10.56-7.712 19.36-7.712 29.12-2.272 0-6.976 21.44-4.608 21.44 0 11.264 3.936 18.624 5.568 31.136 1.824 13.728-0.864 22.080-3.264 31.776-1.312 0-5.728 7.328-6.176 9.184-6.176 4.096-8.448 12.224-8.448 19.904 4.032 4.608 5.632 21.92 4.64 27.616-7.776 3.68-10.88 2.304-19.264 2.304-4.96 9.952-38.272 3.808-47.712 3.808 0-5.44-23.2 1.056-25.376 5.376-5.664 0-16.896 12.032-16.896 17.632-6.208 4.128-16.128 24.672-16.128 31.424-5.376 2.688-3.744 13.056-0.8 13.056 0.736 2.88-1.888 11.968-3.136 16.288-0.928 3.232 3.136 6.72 3.136 10.56 0 10.688 0.256 15.616 6.24 27.040 1.888 3.584 4.288 6.944 6.048 11.424 3.2 8.032 4.16 0.384 8.48 7.552 4.128 2.048 6.528 8.896 10.784 12.256 1.856 2.464 1.92 3.488 0 5.376 0.832 0 5.376 11.808 5.376 14.528 6.016 8.352 1.76 4.544 7.68 3.84 2.176 2.368 5.792 8.448 9.216 8.448 1.504 2.976 5.28 4.608 8.48 4.608 0-4.608 12.544 1.504 13.856 1.504 2.144 4.32 15.968 9.216 19.232 9.216 0 5.248 27.264-1.472 31.552-0.768 0 0.768 0 1.536 0 2.304 5.824-1.376 16.448-24.736 15.36-29.92 4.48 0 8.64 0.736 11.552 0 0-4.96 9.344-6.176 13.6-6.4 5.92-0.288 23.296 0.608 23.296 8.704 4.576 0 8.64-3.2 7.744-8.416 5.184-0.576 36-1.184 33.824-7.648 4.512 0 5.664-7.712 9.984-7.712-0.864-5.312 5.376-19.168 9.984-19.168 0-4.608 2.88-13.088 6.944-16.064 2.176-6.592 9.376-20.48 16.128-24.544-2.88-5.44 4.384-9.92 6.176-15.328-0.416 0 1.568-8.032 3.808-9.216 0-5.44 11.456-27.616 17.728-27.616 0.416-2.688-5.888-3.904 2.304-4.512zM731.264 571.616c1.184 4.576 3.872 1.024 6.368 0.192 5.92-1.92 3.872 0.096 8.256 2.080 0-12.48-7.168-3.008-14.624-2.272zM715.072 594.624c3.136 0 4-14.080-4.608-11.488 0 3.488-2.208 9.952 2.336 9.952 1.312-5.44 2.272-3.232 2.272 1.536zM711.264 603.808c3.552-1.536 5.12-1.024 4.608 1.536 4.672-1.536-0.608-4.864-1.536-8.448-2.4 2.368-1.664 3.2-3.072 6.912zM628.928 672.064c-7.552 1.952 7.776 4.192 8.448 6.112-2.56 0-4.32 2.656-3.328 4.896 1.152 2.656 3.040-3.168 5.664-1.856 3.104 0.32 9.216 4.96 6.080-4-3.2-9.088-6.112-15.744-17.632-15.904-4.128 4.16-0.16 6.336 0.768 10.752zM657.408 703.488c6.208 0 0.768-4.608-0.608-4.608 1.056-0.416-0.192-4.128-0.192-5.344 5.76 0.064 5.856 3.584 9.984 4.608-0.864-5.152-6.624-6.144-0.992-10.56 2.976-2.336 6.016-5.088 4.832-8.64 7.328 0 8.416-7.040 6.912-15.328 4.064 0 3.872-0.192 3.872 3.872 3.936-1.088 3.648-4.64 0-4.64-3.648-7.2-13.216-6.88-20-6.88-0.064 5.568-1.12 5.92-6.272 4.352-7.040-2.144-1.536 5.6-1.408 9.44 0.768 0 15.968-0.704 6.912 2.304-0.48 8.256-2.336 10.72-9.984 10.72 0 5.632-1.984 5.216-2.912 11.392-1.312 9.12 7.136-0.64 9.856 9.312zM655.072 653.664c0-1.888-3.84-3.392-4.608-0.736 0.736-0.256 1.024 0 0.736 0.736 1.312 0 2.624 0 3.872 0zM592 736h-32c-8.832 0-16 7.168-16 16s7.168 16 16 16h32c8.832 0 16-7.168 16-16s-7.168-16-16-16zM405.568 452.8c1.792 0 3.872-0.704 3.872-2.304-2.336 0-5.344-2.208-3.872 2.304zM376.384 451.232c-1.28-2.432-11.648-2.016-13.088 0.8 3.84 0 6.816-1.568 10.752 0 0 2.112-1.76 3.808-3.072 6.112 4.192 0 8.896-3.2 14.624-3.072 0 3.552-1.568-0.768 0 3.84 2.4-0.608 8.192-6.112 8.448-8.416-8.416 0.896-8.8 0.736-17.664 0.736zM342.528 469.632c-3.936 0-11.52 3.424-13.856 6.912 3.808-0.16 7.584-1.728 9.984 2.304 9.76-0.992 10.624-7.712 18.464-7.712 1.472-2.592 9.856-8.544 1.76-9.312-6.112-0.576-13.792 2.752-16.352 7.808zM348.672 448.16c-2.848 0-7.552-1.248-5.376 4.64 3.776-0.512 5.568-2.080 5.376-4.64zM354.048 448.928c-1.536-0.256-3.072-0.512-4.608-0.768 0.448 3.552 3.808 7.52 4.608 0.768zM382.496 415.232c-0.608-2.144-0.512-2.272-3.040-2.272 0.256 0.992 0.48 1.984 0.736 3.040 0.8-0.256 1.536-0.512 2.304-0.768zM313.28 478.848c0.736-0.256 1.536-0.544 2.304-0.768 0.992-3.808 3.072-1.92 5.376-0.768 0-4.448-10.304-5.728-7.68 1.536z" />
<glyph unicode="&#xe607;" glyph-name="uniE607" horiz-adv-x="951" d="M219.429 82.286h512v146.286h-512v-146.286zM219.429 448h512v219.429h-91.429q-22.857 0-38.857 16t-16 38.857v91.429h-365.714v-365.714zM877.714 411.429q0 14.857-10.857 25.714t-25.714 10.857-25.714-10.857-10.857-25.714 10.857-25.714 25.714-10.857 25.714 10.857 10.857 25.714zM950.857 411.429v-237.714q0-7.429-5.429-12.857t-12.857-5.429h-128v-91.429q0-22.857-16-38.857t-38.857-16h-548.571q-22.857 0-38.857 16t-16 38.857v91.429h-128q-7.429 0-12.857 5.429t-5.429 12.857v237.714q0 45.143 32.286 77.429t77.429 32.286h36.571v310.857q0 22.857 16 38.857t38.857 16h384q22.857 0 50.286-11.429t43.429-27.429l86.857-86.857q16-16 27.429-43.429t11.429-50.286v-146.286h36.571q45.143 0 77.429-32.286t32.286-77.429z" />
<glyph unicode="&#xe608;" glyph-name="uniE608" d="M896 128c0-35.392-28.608-64-64-64h-640c-35.328 0-64 28.608-64 64v640c0 35.392 28.672 64 64 64h192l213.312 128h-469.312c-70.656 0-128-57.344-128-128v-768c0-70.656 57.344-128 128-128h768c70.656 0 128 57.344 128 128v528l-128-96v-368zM256.896 338.304c-1.024-11.136-1.024-17.6-1.024-17.6 0 6.208 0.832 11.456 1.024 17.6zM702.976 834.56c-0.704-6.528-1.024-5.312-1.088 0.384-31.616 0.256-429.568-31.424-446.208-520.768 4.736-24.576 85.824 323.136 448.128 394.944 0.192-5.12 0.192-133.12 0.192-133.12l320 192-320 192c1.088 0.576-2.432-101.76-2.048-125.056 2.368-0.064 3.2-0.192 1.024-0.384z" />
<glyph unicode="&#xe609;" glyph-name="uniE609" d="M505.702 918.989c-260.096-3.482-468.173-217.19-464.691-477.338 3.482-259.994 217.19-468.122 477.286-464.64s468.173 217.19 464.691 477.338c-3.43 260.045-217.19 468.122-477.286 464.64zM557.926 762.010c47.872 0 62.003-27.75 62.003-59.546 0-39.68-31.795-76.39-86.016-76.39-45.363 0-66.918 22.835-65.638 60.518 0 31.795 26.624 75.418 89.651 75.418zM435.149 153.6c-32.717 0-56.678 19.866-33.792 107.213l37.53 154.829c6.502 24.832 7.578 34.765 0 34.765-9.779 0-52.275-17.152-77.414-34.048l-16.333 26.778c79.616 66.458 171.162 105.472 210.381 105.472 32.717 0 38.144-38.707 21.811-98.253l-43.008-162.816c-7.578-28.774-4.301-38.707 3.277-38.707 9.779 0 41.984 11.878 73.626 36.762l18.483-24.832c-77.363-77.363-161.792-107.162-194.56-107.162z" />
<glyph unicode="&#xe60a;" glyph-name="uniE60A" d="M512 960c-282.77 0-512-229.23-512-512s229.23-512 512-512 512 229.23 512 512-229.23 512-512 512zM658.744 210.744l-210.744 210.746v282.51h128v-229.49l173.256-173.254-90.512-90.512z" />
<glyph unicode="&#xe60b;" glyph-name="uniE60B" d="M839.322 663.584c77.644-55.030 141.37-129.092 184.678-215.584-95.122-189.958-288.686-320-512-320-62.566 0-122.792 10.212-179.178 29.084l77.956 77.956c33.058-7.3 66.972-11.040 101.222-11.040 89.558 0 176.854 25.486 252.446 73.704 60.162 38.376 111.144 89.776 149.436 150.298-37.052 58.566-86.014 108.55-143.65 146.494l69.090 69.088zM512 262c-22.724 0-44.752 2.976-65.728 8.534l313.186 313.184c5.562-20.972 8.542-42.994 8.542-65.718 0-141.384-114.616-256-256-256zM960 960h-53.738l-219.612-219.612c-55.076 17.924-113.754 27.612-174.65 27.612-223.318 0-416.882-130.042-512-320 42.658-85.192 105.128-158.308 181.194-213.068l-181.194-181.194v-53.738h53.738l906.262 906.262v53.738zM416 646c48.044 0 87.846-35.294 94.892-81.37l-109.524-109.524c-46.074 7.048-81.368 46.85-81.368 94.894 0 53.020 42.98 96 96 96zM110.116 448c38.292 60.524 89.274 111.924 149.434 150.296 3.918 2.5 7.876 4.922 11.858 7.3-9.958-27.328-15.408-56.822-15.408-87.596 0-58.524 19.65-112.448 52.698-155.562l-58.55-58.55c-56.072 37.642-103.754 86.772-140.032 144.112z" />
<glyph unicode="&#xe60c;" glyph-name="uniE60C" d="M512 716.237c-147.149 1.126-267.315-117.299-268.442-264.448-1.075-147.098 117.299-267.315 264.448-268.39 147.098-1.075 267.315 117.299 268.39 264.448 1.126 147.098-117.299 267.315-264.397 268.39zM420.301 271.36l0.256 88.166 43.52 1.075 0.256 178.995-43.008-0.358-0.717 48.538 57.856 40.243 75.008 0.154 0.358-268.083 44.544-0.563 0.666-88.371-178.739 0.205zM986.778 388.608l-75.11 42.803c-21.402 10.906-21.299 28.672 0.102 39.475l75.213 42.496c20.89 10.547 19.098 22.17-3.994 25.856l-84.634 17.459c-23.706 3.789-29.133 20.685-12.134 37.581l58.419 63.642c16.64 16.486 11.366 26.982-11.827 23.296l-85.811-9.523c-23.757-3.738-34.15 10.65-23.142 32l35.84 78.541c10.701 20.838 2.406 29.133-18.432 18.534l-78.746-35.533c-21.402-10.957-35.738-0.461-31.898 23.245l9.882 85.811c3.686 23.091-6.758 28.518-23.296 11.93l-63.898-58.112c-16.947-16.998-33.843-11.469-37.478 12.237l-17.152 84.582c-3.533 23.142-15.155 24.986-25.856 4.147l-42.752-75.008c-10.957-21.402-28.723-21.35-39.526 0.051l-42.445 75.213c-10.598 20.992-22.221 19.149-25.856-3.994l-17.459-84.582c-3.789-23.706-20.736-29.133-37.632-12.083l-63.539 58.317c-16.486 16.64-26.982 11.366-23.347-11.776l9.472-85.811c3.738-23.757-10.65-34.15-32-23.142l-78.541 35.84c-20.838 10.701-29.133 2.406-18.534-18.483l35.533-78.694c10.906-21.402 0.461-35.789-23.245-31.846l-85.811 9.779c-23.142 3.738-28.467-6.707-11.93-23.296l58.163-63.846c16.998-16.998 11.469-33.843-12.288-37.53l-84.685-17.203c-23.091-3.533-24.986-15.104-4.096-25.805l74.957-42.752c21.453-10.906 21.35-28.723-0.051-39.475l-75.162-42.496c-20.941-10.547-19.098-22.17 4.045-25.856l84.582-17.459c23.706-3.738 29.184-20.634 12.134-37.581l-58.419-63.642c-16.64-16.486-11.315-26.982 11.827-23.296l85.862 9.523c23.706 3.738 34.099-10.65 23.142-32l-35.891-78.541c-10.65-20.838-2.355-29.184 18.483-18.534l78.694 35.533c21.35 10.906 35.738 0.461 31.898-23.296l-9.779-85.811c-3.789-23.091 6.707-28.467 23.296-11.827l63.846 58.112c16.998 16.998 33.843 11.469 37.53-12.288l17.152-84.582c3.584-23.091 15.206-24.986 25.856-4.096l42.701 75.008c10.906 21.402 28.723 21.35 39.526-0.102l42.496-75.162c10.496-20.89 22.221-19.149 25.805 3.994l17.51 84.531c3.686 23.757 20.634 29.184 37.581 12.134l63.539-58.368c16.486-16.64 26.982-11.366 23.347 11.776l-9.523 85.862c-3.686 23.706 10.65 34.15 32 23.142l78.592-35.891c20.787-10.701 29.082-2.406 18.483 18.483l-35.584 78.694c-10.906 21.402-0.41 35.738 23.296 31.898l85.862-9.83c23.142-3.738 28.518 6.707 11.93 23.296l-58.214 63.846c-16.998 16.998-11.52 33.894 12.237 37.53l84.634 17.152c23.245 3.533 25.139 15.155 4.25 25.805zM507.648 135.834c-173.363 1.28-312.883 142.95-311.603 316.314 1.28 173.414 142.95 312.883 316.314 311.603 173.363-1.28 312.883-142.899 311.603-316.262-1.331-173.363-142.899-312.883-316.314-311.654z" />
<glyph unicode="&#xe60d;" glyph-name="uniE60D" horiz-adv-x="987" d="M486.636 926.759c-263.641 0-477.42-214.331-477.42-478.759 0-264.271 213.701-478.759 477.42-478.759s477.42 214.489 477.42 478.759c-0.079 264.428-213.78 478.759-477.42 478.759zM310.587 665.403c48.364 0 87.591-39.070 87.591-87.276s-39.148-87.355-87.591-87.355-87.591 39.070-87.591 87.276 39.227 87.355 87.591 87.355zM484.903 141.509c-182.114 0-260.254 173.607-260.254 173.607l73.177 52.854c0 0 56.95-136.901 187.077-136.901 130.206 0 189.755 135.562 189.755 135.562l70.498-51.515c0 0-75.461-173.607-260.254-173.607zM657.644 490.772c-48.364 0-87.591 39.070-87.591 87.276s39.148 87.355 87.591 87.355 87.591-39.070 87.591-87.276-39.227-87.355-87.591-87.355z" />
<glyph unicode="&#xe60e;" glyph-name="uniE60E" horiz-adv-x="805" d="M804.571 251.429q0-15.429-5.714-40.286t-12-39.143q-12-28.571-69.714-60.571-53.714-29.143-106.286-29.143-15.429 0-30 2t-32.857 7.143-27.143 8.286-31.714 11.714-28 10.286q-56 20-100 47.429-73.143 45.143-151.143 123.143t-123.143 151.143q-27.429 44-47.429 100-1.714 5.143-10.286 28t-11.714 31.714-8.286 27.143-7.143 32.857-2 30q0 52.571 29.143 106.286 32 57.714 60.571 69.714 14.286 6.286 39.143 12t40.286 5.714q8 0 12-1.714 10.286-3.429 30.286-43.429 6.286-10.857 17.143-30.857t20-36.286 17.714-30.571q1.714-2.286 10-14.286t12.286-20.286 4-16.286q0-11.429-16.286-28.571t-35.429-31.429-35.429-30.286-16.286-26.286q0-5.143 2.857-12.857t4.857-11.714 8-13.714 6.571-10.857q43.429-78.286 99.429-134.286t134.286-99.429q1.143-0.571 10.857-6.571t13.714-8 11.714-4.857 12.857-2.857q10.286 0 26.286 16.286t30.286 35.429 31.429 35.429 28.571 16.286q8 0 16.286-4t20.286-12.286 14.286-10q14.286-8.571 30.571-17.714t36.286-20 30.857-17.143q40-20 43.429-30.286 1.714-4 1.714-12z" />
<glyph unicode="&#xe60f;" glyph-name="uniE60F" horiz-adv-x="1047" d="M937.373 932.232h-832.452c-50.718 0-87.401-36.683-87.401-96.497v-523.083c0-59.753 30.6-105.412 93.425-105.412h195.945l0.422-243.531 38.912 1.084 162.575 242.447h425.502c59.753 0 96.437 45.658 96.437 96.497v538.082c0.060 50.718-33.551 90.413-93.365 90.413zM306.83 545.461c0-26.624-21.564-48.248-48.188-48.248h-48.248c-26.624 0-48.188 21.564-48.188 48.248v48.188c0 26.624 21.564 48.248 48.188 48.248h48.248c26.624 0 48.188-21.564 48.188-48.248v-48.188zM596.141 545.461c0-26.624-21.504-48.248-48.248-48.248h-48.188c-26.624 0-48.248 21.564-48.248 48.248v48.188c0 26.624 21.564 48.248 48.248 48.248h48.188c26.684 0 48.248-21.564 48.248-48.248v-48.188zM885.451 545.461c0-26.624-21.504-48.248-48.188-48.248h-48.248c-26.624 0-48.188 21.564-48.188 48.248v48.188c0 26.624 21.504 48.248 48.188 48.248h48.248c26.624 0 48.188-21.564 48.188-48.248v-48.188z" />
<glyph unicode="&#xe610;" glyph-name="uniE610" d="M896 800h-768c-70.688 0-128-57.344-128-128v-416c0-70.688 57.312-128 128-128h768c70.688 0 128 57.312 128 128v416c0 70.656-57.312 128-128 128zM64 632l223.968-168-223.968-168v336zM960 256c0-35.328-28.736-64-64-64h-768c-35.296 0-64 28.672-64 64l250.624 188 139.776-104.864c17.056-12.736 37.312-19.2 57.6-19.2 20.256 0 40.512 6.432 57.568 19.2l139.808 104.864 250.624-188zM960 296l-224 168 224 168v-336zM550.368 364.736c-11.168-8.384-24.416-12.8-38.368-12.8s-27.232 4.448-38.4 12.8l-409.6 307.264c0 35.296 28.704 64 64 64h768c35.264 0 64-28.704 64-64l-409.632-307.264z" />
<glyph unicode="&#xe611;" glyph-name="uniE611" d="M636.086 958.157c-213.22 0-386.048-172.828-386.048-386.048 0-77.733 23.188-149.936 62.692-210.512-0.432-0.41-0.933-0.683-1.365-1.115l-274.546-274.591c-17.772-17.749-21.572-47.991-3.8-65.786l44.442-50.13c17.772-17.772 50.381-16.361 68.176 1.434l273.135 276.002c1.138 1.138 2.002 2.435 3.004 3.664 61.326-41.028 135.009-64.99 214.312-64.99 213.197 0 386.048 172.851 386.048 386.048s-172.851 386.025-386.048 386.025zM637.611 276.719c-163.977 0-296.892 132.938-296.892 296.914s132.915 296.892 296.892 296.892c163.999 0 296.937-132.938 296.937-296.914s-132.938-296.892-296.937-296.892z" />
<glyph unicode="&#xe612;" glyph-name="uniE612" horiz-adv-x="878" d="M694.858 294.4c-35.226 0-67.482-11.93-93.389-31.846l-267.213 160.307c1.28 8.192 2.202 16.589 2.202 25.139 0 8.602-0.922 16.947-2.202 25.139l267.213 160.307c25.907-19.917 58.163-31.846 93.389-31.846 84.787 0 153.6 68.762 153.6 153.6s-68.813 153.6-153.6 153.6-153.6-68.762-153.6-153.6c0-8.55 0.922-16.947 2.253-25.139l-267.213-160.358c-25.907 19.968-58.214 31.898-93.44 31.898-84.838 0-153.6-68.762-153.6-153.6 0-84.787 68.762-153.6 153.6-153.6 35.226 0 67.533 11.93 93.44 31.846l267.213-160.307c-1.331-8.192-2.253-16.538-2.253-25.139 0-84.787 68.813-153.6 153.6-153.6s153.6 68.813 153.6 153.6-68.813 153.6-153.6 153.6z" />
<glyph unicode="&#xe613;" glyph-name="uniE613" horiz-adv-x="646" d="M323.050 725.333c-11.776 0-21.333-9.557-21.333-21.333s9.557-21.333 21.333-21.333c46.208 0 83.797-37.589 83.797-83.797 0-11.776 9.557-21.333 21.333-21.333s21.333 9.557 21.333 21.333c0 69.717-56.747 126.464-126.464 126.464zM323.050 917.333c-176.469 0-320-143.531-320-320 0-63.403 18.773-124.672 54.357-177.707 0.981-2.005 2.091-3.925 3.413-5.76 77.867-111.189 91.563-146.347 91.563-179.2v-128c0-23.552 19.115-42.667 42.667-42.667h85.333c0-11.093 4.693-22.187 12.373-30.293 8.107-7.68 19.2-12.373 30.293-12.373s22.187 4.693 30.293 12.373c7.68 8.107 12.373 19.2 12.373 30.293h85.333c23.552 0 42.667 19.115 42.667 42.667v128c0 33.365 13.611 68.693 90.965 179.157 38.187 54.4 58.368 117.845 58.368 183.509 0 176.469-143.531 320-320 320zM408.384 149.333h-170.667v42.667h170.667v-42.667zM514.837 462.805c-62.549-89.301-91.435-140.331-101.76-185.472h-47.36v85.333c0 23.552-19.115 42.667-42.667 42.667s-42.667-19.115-42.667-42.667v-85.333h-47.488c-10.24 43.947-38.315 93.867-98.389 180.053-0.939 1.877-2.048 3.712-3.285 5.504-28.032 39.851-42.837 86.357-42.837 134.443 0 129.408 105.259 234.667 234.667 234.667s234.667-105.259 234.667-234.667c0-48.043-14.805-94.549-42.88-134.528z" />
<glyph unicode="&#xe614;" glyph-name="uniE614" horiz-adv-x="987" d="M758.784 220.262c-126.208 45.978-166.554 84.787-166.554 167.885 0 49.869 38.554 33.587 55.45 124.928 7.014 37.888 41.062 0.614 47.616 87.091 0 34.458-18.586 43.059-18.586 43.059s9.472 51.046 13.158 90.266c4.506 48.947-28.262 175.309-203.469 175.309-175.155 0-208.026-126.362-203.418-175.309 3.686-39.219 13.158-90.266 13.158-90.266s-18.637-8.55-18.637-43.059c6.502-86.477 40.55-49.203 47.565-87.091 16.947-91.341 55.501-75.059 55.501-124.928 0-83.098-40.346-121.907-166.554-167.885-126.669-46.080-208.896-93.133-208.896-125.235 0-32.051 0-107.776 0-107.776h962.56c0 0 0 75.725 0 107.776s-82.278 79.104-208.896 125.235z" />
<glyph unicode="&#xe615;" glyph-name="uniE615" horiz-adv-x="896" d="M432.384-7.488l287.232-0.512c24.896 0 44.992 20.032 44.992 44.864v256.064l-274.24-274.624c-14.016-14.080-57.984-25.792-57.984-25.792zM721.216 623.168c18.688 18.752 43.456 16.192 43.456 16.192v252.288c0 24.832-20.096 44.864-44.992 44.864h-433.024c-12.032 0-23.552-4.8-32-13.376l-242.432-247.168c-8.256-8.448-12.864-19.776-12.864-31.616v-607.488c0-24.832 20.096-44.864 44.928-44.864h131.52c0 0 134.272 227.2 128.576 221.44l416.832 409.728zM44.416 575.616v45.952h270.144v269.504h44.736v-288.512c0-14.848-12.032-26.944-26.944-26.944h-287.936zM852.608 486.464l-77.952 85.056c-8.512 8.512-22.4 8.512-30.848 0l-399.616-398.208c-2.176-2.112-3.84-4.736-4.928-7.616 0 0-77.952-126.464-109.184-193.024-12.864-27.456 11.264-31.36 27.648-23.232 63.168 31.232 187.712 102.976 187.712 102.976 2.88 1.152 5.44 2.816 7.68 4.992l399.616 398.208c4.096 4.032 6.4 9.6 6.4 15.424-0.128 5.76-2.368 11.328-6.528 15.424z" />
<glyph unicode="&#xe616;" glyph-name="uniE616" horiz-adv-x="1097" d="M1073.714 416q0-17.714-17.714-37.714l-192-226.286q-24.571-29.143-68.857-49.429t-82-20.286h-621.714q-19.429 0-34.571 7.429t-15.143 24.571q0 17.714 17.714 37.714l192 226.286q24.571 29.143 68.857 49.429t82 20.286h621.714q19.429 0 34.571-7.429t15.143-24.571zM877.714 612.571v-91.429h-475.429q-53.714 0-112.571-27.143t-93.714-68.286l-195.428-229.715q0 2.286-0.286 7.143t-0.286 7.143v548.571q0 52.571 37.714 90.286t90.286 37.714h182.857q52.571 0 90.286-37.714t37.714-90.286v-18.286h310.857q52.571 0 90.286-37.714t37.714-90.286z" />
<glyph unicode="&#xe617;" glyph-name="uniE617" d="M576 320v-192h128l-192-192-192 192h128v192zM448 576v192h-128l192 192 192-192h-128v-192zM384 384h-192v-128l-192 192 192 192v-128h192zM640 512h192v128l192-192-192-192v128h-192z" />
<glyph unicode="&#xe618;" glyph-name="uniE618" horiz-adv-x="1122" d="M538.234 205.458c11.849-12.995 20.626-11.264 23.893-9.923-0.878 0.366-1.39 0.707-1.39 0.707h2.828c0 0-0.561-0.366-1.463-0.707 2.974-1.219 10.825-2.511 22.894 9.923 96.549 99.596 184.686 211.578 275.7 309.346 34.987 37.571-27.624 35.669-34.767 35.669-41.691 0-105.691 0.024-162.085 0.049v375.564c0 17.067-20.090 35.426-39.278 35.426h-127.244c-21.138 0-37.376-14.946-37.376-37.595v-373.419c-50.298-0.024-113.762-0.049-160.158-0.049-7.144 0-71.924 1.853-36.864-35.669 85.992-92.038 159.842-182.613 275.31-309.321zM1123.84 12.605v197.949c0 17.091-20.066 35.426-39.253 35.426h-25.015c-21.138 0-37.376-14.921-37.376-37.571v-169.058h-920.576v171.179c0 17.091-20.066 35.426-39.253 35.426h-25.015c-21.138 0-37.376-14.921-37.376-37.571v-235.13c0-7.095 2.17-13.726 5.851-19.163 6.363-10.021 17.53-16.433 31.744-16.433h1052.891c18.895 0 34.231 15.336 34.231 34.255v33.134c0.024 2.609-0.317 5.12-0.853 7.558z" />
<glyph unicode="&#xe619;" glyph-name="uniE619" horiz-adv-x="878" d="M806.181 915.042h-272.189c-7.461 33.353-25.795 48.957-64.366 48.957h-58.124c-38.034 0-56.369-16.725-64.024-48.957h-275.554c-54.077 0-71.924-43.788-71.924-97.914h881.128c0 54.126-20.821 97.914-74.947 97.914zM97.914 33.963c0-54.126 43.837-97.963 97.914-97.963h489.521c54.077 0 97.914 43.837 97.914 97.963v734.208h-685.349v-734.208zM636.392 670.306h48.957v-637.903h-48.957v637.903zM489.521 670.306h48.957v-637.903h-48.957v637.903zM342.65 670.306h48.957v-637.903h-48.957v637.903zM195.828 670.306h48.957v-637.903h-48.957v637.903z" />
<glyph unicode="&#xe61a;" glyph-name="uniE61A" horiz-adv-x="878" d="M443.429 16c-229.76 0-416 186.24-416 416s186.24 416 416 416 416-186.24 416-416-186.24-416-416-416zM649.445 449.984c0 17.664-14.336 32-32 32h-128v128c0 17.664-14.304 32-32 32h-32c-17.696 0-32-14.336-32-32v-128h-128c-17.696 0-32-14.336-32-32v-32c0-17.696 14.304-32 32-32h128v-128c0-17.696 14.304-32 32-32h32c17.696 0 32 14.304 32 32v128h128c17.664 0 32 14.304 32 32v32z" />
<glyph unicode="&#xe61b;" glyph-name="uniE61B" d="M724.032 321.888l-0.32 0.192-2.112-1.696 3.008-0.448c0 0 129.664-326.528 102.496-373.856-53.408-40.48-282.944 179.040-312.768 208.032l0.192-1.12c0 0-257.888-257.536-317.6-211.488-35.776 25.984 94.304 384.96 94.304 384.96l0.608 0.096c-47.776 27.296-310.176 212.672-290.784 279.392 0.576 40.16 365.248 37.376 376.864 35.808 1.408 8.16 63.904 318.24 134.112 318.24 70.56 0 131.2-317.376 131.936-321.792h0.192l0.064-0.32 0.8 1.696c0 0 377.376 5.792 377.952-33.632 21.376-73.376-298.944-284.064-298.944-284.064z" />
<glyph unicode="&#xe61c;" glyph-name="uniE61C" d="M512 960c-282.784 0-512-229.248-512-512s229.216-512 512-512 512 229.248 512 512c0 282.752-229.216 512-512 512zM576 69.76v122.24c0 17.696-14.304 32-32 32h-64c-17.696 0-32-14.304-32-32v-122.24c-160.672 27.008-287.424 153.6-314.464 314.24h122.464c17.696 0 32 14.304 32 32v64c0 17.696-14.304 32-32 32h-122.24c27.008 160.704 153.6 287.424 314.24 314.464v-122.464c0-17.664 14.304-32 32-32h64c17.696 0 32 14.336 32 32v122.464c160.64-27.040 287.232-153.76 314.24-314.464h-122.24c-17.696 0-32-14.304-32-32v-64c0-17.696 14.304-32 32-32h122.464c-27.040-160.64-153.792-287.232-314.464-314.24z" />
<glyph unicode="&#xe61d;" glyph-name="uniE61D" d="M585.143 174.286v108.571q0 8-5.429 13.429t-12.857 5.429h-109.714q-7.429 0-12.857-5.429t-5.429-13.429v-108.571q0-8 5.429-13.429t12.857-5.429h109.714q7.429 0 12.857 5.429t5.429 13.429zM584 388l10.286 262.286q0 6.857-5.714 10.857-7.429 6.286-13.714 6.286h-125.714q-6.286 0-13.714-6.286-5.714-4-5.714-12l9.714-261.143q0-5.714 5.714-9.429t13.714-3.714h105.714q8 0 13.429 3.714t6 9.429zM576 921.714l438.857-804.571q20-36-1.143-72-9.714-16.571-26.571-26.286t-36.286-9.714h-877.714q-19.429 0-36.286 9.714t-26.571 26.286q-21.143 36-1.143 72l438.857 804.571q9.714 17.714 26.857 28t37.143 10.286 37.143-10.286 26.857-28z" />
<glyph unicode="&#xe61e;" glyph-name="uniE61E" d="M965.536 718.656l-10.048-10.048-183.232 183.328 10.016 10.016c0 0 43.872 58.016 106.272 58.016 27.488 0 58.624-11.296 91.168-43.84 107.328-107.328-14.176-197.472-14.176-197.472zM895.328 648.416l-623.968-624.192-271.36-88.224 88.192 271.52v0.096h0.064l623.872 624.16 8.064-8.096zM88.32 24.352l135.584 39.008-92.608 98.624-42.976-137.632z" />
<glyph unicode="&#xe61f;" glyph-name="uniE61F" horiz-adv-x="878" d="M877.714 448q0-89.143-34.857-170.286t-93.714-140-140-93.714-170.286-34.857q-98.286 0-186.857 41.429t-150.857 116.857q-4 5.714-3.714 12.857t4.857 11.714l78.286 78.857q5.714 5.143 14.286 5.143 9.143-1.143 13.143-6.857 41.714-54.286 102.286-84t128.571-29.714q59.429 0 113.429 23.143t93.429 62.571 62.571 93.429 23.143 113.429-23.143 113.429-62.571 93.429-93.429 62.571-113.429 23.143q-56 0-107.429-20.286t-91.429-58l78.286-78.857q17.714-17.143 8-39.429-9.714-22.857-33.714-22.857h-256q-14.857 0-25.714 10.857t-10.857 25.714v256q0 24 22.857 33.714 22.286 9.714 39.429-8l74.286-73.714q61.143 57.714 139.714 89.429t162.571 31.714q89.143 0 170.286-34.857t140-93.714 93.714-140 34.857-170.286z" />
<glyph unicode="&#xe620;" glyph-name="uniE620" d="M989 140l-169-169q-34-35-83.5-35t-84.5 35l-169 169q-32 32-34 77.5t26 80.5l214-215q20-19 47.5-19t46.5 19l94 94q19 19 19 46.5t-19 47.5l-215 214q35 28 80.5 26t77.5-34l169-169q35-35 35-84.5t-35-83.5zM341 619q19 19 45 20t44-17l257-258q18-17 17-43.5t-20-45.5-45-19.5-44 16.5l-257 258q-18 18-17 44t20 45zM335 812q-19 20-46.5 20t-47.5-20l-93-93q-20-20-20-47.5t20-46.5l214-214q-35-28-80.5-26t-77.5 34l-169 169q-35 35-35 84.5t35 84.5l169 168q34 35 83.5 35t84.5-35l169-168q32-33 34-78.5t-26-80.5z" />
<glyph unicode="&#xe621;" glyph-name="uniE621" d="M448 302.208h-96v1.952c-10.56-1.088-21.152-1.952-32-1.952-176.704 0-320 143.264-320 320s143.296 320 320 320 320-143.264 320-320v-128h32v-32h32v-32h32v-32h32v-32h32v-32h32v-32h32v-32h32v-32h32v-32h32v-32h32v-32h32v-192c0-17.696-14.304-32-32-32h-128c-17.696 0-32 14.304-32 32v128h-160c-17.664 0-32 14.304-32 32v128h-160zM256 814.208c-70.688 0-128-57.312-128-128s57.312-128 128-128 128 57.312 128 128-57.312 128-128 128z" />
<glyph unicode="&#xe622;" glyph-name="uniE622" d="M737.229 68.198c13.722-13.875 13.722-36.25 0-50.125s-35.891-13.875-49.613 0l-400.896 404.838c-13.722 13.875-13.722 36.301 0 50.125l400.896 404.89c13.722 13.875 35.891 13.875 49.613 0s13.722-36.25 0-50.125l-365.568-379.802 365.568-379.802z" />
<glyph unicode="&#xe623;" glyph-name="uniE623" horiz-adv-x="699" d="M124.109 203.327h426.992c57.281 0 104.133 46.868 104.133 104.149v498.688c0 57.297-46.868 104.149-104.133 104.149h-48.254v5.136c0 23.962-19.629 43.591-43.607 43.591h-243.302c-23.962 0-43.575-19.629-43.575-43.591v-5.12h-48.254c-57.265 0-104.133-46.868-104.133-104.149v-498.704c0-57.297 46.868-104.149 104.133-104.149zM160.815 281.277c-29.365 0-53.169 24.088-53.169 53.815 0 29.743 23.804 53.831 53.169 53.831s53.169-24.088 53.169-53.831c0-29.728-23.804-53.815-53.169-53.815zM515.293 281.277c-30.090 0-54.493 24.088-54.493 53.815 0 29.743 24.403 53.831 54.493 53.831 30.074 0 54.461-24.088 54.461-53.831 0-29.728-24.387-53.815-54.461-53.815zM222.318 894.968c0 11.973 9.815 21.788 21.788 21.788h186.967c11.989 0 21.788-9.815 21.788-21.788v-2.552c0-11.989-9.799-21.788-21.788-21.788h-186.967c-11.973 0-21.788 9.799-21.788 21.788v2.552zM93.216 749.954c0 26.088 21.157 47.262 47.262 47.262h396.477c26.088 0 47.262-21.173 47.262-47.262v-182.493c0-26.088-21.173-47.262-47.262-47.262h-396.477c-26.104 0-47.262 21.173-47.262 47.262v182.493zM663.599-14.675l-107.599 153.695c-9.736 13.911-28.908 17.313-42.803 7.562-13.911-9.736-17.298-28.908-7.562-42.803l107.583-153.695c5.986-8.554 15.518-13.123 25.222-13.123 6.081 0 12.225 1.796 17.597 5.561 13.895 9.736 17.266 28.908 7.562 42.803zM164.218 146.582c-13.911 9.736-33.083 6.333-42.819-7.562l-107.583-153.695c-9.72-13.895-6.333-33.067 7.562-42.803 5.356-3.749 11.516-5.561 17.597-5.561 9.689 0 19.22 4.569 25.206 13.123l107.583 153.695c9.752 13.895 6.365 33.067-7.546 42.803z" />
<glyph unicode="&#xe624;" glyph-name="uniE624" d="M128 64h896v-128h-1024v1024h128zM288 128c-53.020 0-96 42.98-96 96s42.98 96 96 96c2.828 0 5.622-0.148 8.388-0.386l103.192 171.986c-9.84 15.070-15.58 33.062-15.58 52.402 0 53.020 42.98 96 96 96s96-42.98 96-96c0-19.342-5.74-37.332-15.58-52.402l103.192-171.986c2.766 0.238 5.56 0.386 8.388 0.386 2.136 0 4.248-0.094 6.35-0.23l170.356 298.122c-10.536 15.408-16.706 34.036-16.706 54.11 0 53.020 42.98 96 96 96s96-42.98 96-96c0-53.020-42.98-96-96-96-2.14 0-4.248 0.094-6.35 0.232l-170.356-298.124c10.536-15.406 16.706-34.036 16.706-54.11 0-53.020-42.98-96-96-96s-96 42.98-96 96c0 19.34 5.74 37.332 15.578 52.402l-103.19 171.984c-2.766-0.238-5.56-0.386-8.388-0.386s-5.622 0.146-8.388 0.386l-103.192-171.986c9.84-15.068 15.58-33.060 15.58-52.4 0-53.020-42.98-96-96-96z" />
<glyph unicode="&#xe625;" glyph-name="uniE625" d="M1002.934 142.124l-460.552 394.76c21.448 40.298 33.618 86.282 33.618 135.116 0 159.058-128.942 288-288 288-29.094 0-57.172-4.332-83.646-12.354l166.39-166.39c24.89-24.89 24.89-65.62 0-90.51l-101.49-101.49c-24.89-24.89-65.62-24.89-90.51 0l-166.39 166.39c-8.022-26.474-12.354-54.552-12.354-83.646 0-159.058 128.942-288 288-288 48.834 0 94.818 12.17 135.116 33.62l394.76-460.552c22.908-26.724 62.016-28.226 86.904-3.338l101.492 101.492c24.888 24.888 23.386 63.994-3.338 86.902z" />
<glyph unicode="&#xe626;" glyph-name="uniE626" d="M505.754 918.989c-260.147-3.482-468.224-217.19-464.742-477.338 3.482-259.994 217.19-468.122 477.338-464.64 260.045 3.482 468.173 217.19 464.64 477.338-3.43 260.045-217.139 468.122-477.235 464.64zM504.371 161.28h-2.611c-40.038 1.178-68.301 30.72-67.174 70.195 1.126 38.758 30.054 66.97 68.813 66.97l2.355-0.051c41.165-1.229 69.12-30.464 67.891-71.066-1.126-38.861-29.645-66.048-69.274-66.048zM672.87 495.718c-9.472-13.363-30.157-30.003-56.269-50.33l-28.774-19.866c-15.77-12.288-25.293-23.808-28.826-35.123-2.867-9.011-4.198-11.315-4.454-29.491l-0.051-4.659h-109.722l0.307 9.318c1.331 38.195 2.304 60.621 18.125 79.206 24.832 29.133 79.616 64.41 81.92 65.894 7.834 5.939 14.438 12.646 19.405 19.814 11.52 15.872 16.589 28.416 16.589 40.653 0 17.050-5.069 32.819-15.053 46.848-9.626 13.568-27.904 20.429-54.323 20.429-26.214 0-44.134-8.346-54.886-25.395-11.11-17.562-16.64-35.942-16.64-54.784v-4.71h-113.152l0.205 4.915c2.918 69.325 27.648 119.194 73.523 148.326 28.774 18.586 64.614 27.955 106.394 27.955 54.733 0 101.018-13.312 137.37-39.526 36.864-26.573 55.552-66.406 55.552-118.323 0-29.082-9.165-56.371-27.238-81.152z" />
<glyph unicode="&#xe627;" glyph-name="uniE627" horiz-adv-x="951" d="M936.571 686.857q22.857-32.571 10.286-73.714l-157.143-517.714q-10.857-36.571-43.714-61.429t-70-24.857h-527.429q-44 0-84.857 30.571t-56.857 75.143q-13.714 38.286-1.143 72.571 0 2.286 1.714 15.429t2.286 21.143q0.571 4.571-1.714 12.286t-1.714 11.143q1.143 6.286 4.571 12t9.429 13.429 9.429 13.429q13.143 21.714 25.714 52.286t17.143 52.286q1.714 5.714 0.286 17.143t-0.286 16q1.714 6.286 9.714 16t9.714 13.143q12 20.571 24 52.571t14.286 51.429q0.571 5.143-1.429 18.286t0.286 16q2.286 7.429 12.571 17.429t12.571 12.857q10.857 14.857 24.286 48.286t15.714 55.143q0.571 4.571-1.714 14.571t-1.143 15.143q1.143 4.571 5.143 10.286t10.286 13.143 9.714 12q4.571 6.857 9.429 17.429t8.571 20 9.143 20.571 11.143 18.286 15.143 13.429 20.571 6.571 27.143-3.143l-0.571-1.714q21.714 5.143 29.143 5.143h434.857q42.286 0 65.143-32t10.286-74.286l-156.571-517.714q-20.571-68-40.857-87.714t-73.429-19.714h-496.571q-15.429 0-21.714-8.571-6.286-9.143-0.571-24.571 13.714-40 82.286-40h527.429q16.571 0 32 8.857t20 23.714l171.429 564q4 12.571 2.857 32.571 21.714-8.571 33.714-24.571zM328.571 685.714q-2.286-7.429 1.143-12.857t11.429-5.429h347.429q7.429 0 14.571 5.429t9.429 12.857l12 36.571q2.286 7.429-1.143 12.857t-11.429 5.429h-347.429q-7.429 0-14.571-5.429t-9.429-12.857zM281.143 539.429q-2.286-7.429 1.143-12.857t11.429-5.429h347.429q7.429 0 14.571 5.429t9.429 12.857l12 36.571q2.286 7.429-1.143 12.857t-11.429 5.429h-347.429q-7.429 0-14.571-5.429t-9.429-12.857z" />
<glyph unicode="&#xe628;" glyph-name="uniE628" d="M768 320.032l-182.82 182.822 438.82 329.15-128.010 127.996-548.52-219.442-172.7 172.706c-49.78 49.778-119.302 61.706-154.502 26.508-35.198-35.198-23.268-104.726 26.51-154.5l172.686-172.684-219.464-548.582 127.99-128.006 329.19 438.868 182.826-182.828v-255.98h127.994l63.992 191.988 191.988 63.996v127.992l-255.98-0.004z" />
<glyph unicode="&#xe629;" glyph-name="uniE629" horiz-adv-x="1361" d="M1335.046 719.947h-140.388c-32.731 56.395-67.659 114.488-128.337 193.274-25.612 31.994-49.177 48.29-96.631 48.29h-578.198c-47.466 0-71.031-16.309-96.631-48.29-47.566-63.613-89.313-128.2-128.337-193.274h-140.4c-5.894 0-22.678 1.511-22.678-24.139v-24.164c0-24.139 18.782-48.34 48.34-48.34h64.924c0 0-63.413-119.758-63.413-241.564v-386.485c0-20.293 20.53-48.29 48.29-48.29h96.631c23.515 0 48.303 25.85 48.303 48.29v96.631h868.14v-96.631c0-22.441 24.776-48.29 48.29-48.29h96.631c27.76 0 48.29 27.998 48.29 48.29v386.498c0 113.264-63.413 241.564-63.413 241.564h64.924c29.559 0 48.34 24.201 48.34 48.34v24.164c0.012 25.637-16.771 24.126-22.678 24.126zM243.487 676.19c30.732 53.323 61.865 106.671 98.154 160.006 19.219 31.469 42.683 37.751 58.88 37.751h560.14c16.197 0 39.661-6.294 58.88-37.751 47.903-68.521 72.242-113.514 98.142-160.006 17.908-29.409-1.511-48.34-19.656-48.34h-834.872c-18.145 0-37.613 18.932-19.668 48.34zM338.619 408.926c-1.224-5.020-2.498-10.39-4.546-15.073-0.337-1.024-1.074-2.048-1.461-3.022-2.385-4.97-4.433-10.64-7.555-15.073-2.785-4.146-7.18-8.492-10.59-12.101-17.021-18.195-40.873-30.196-67.946-30.196-7.618 0-14.049 2.847-21.129 4.521-5.17 1.036-10.24 1.186-15.073 3.047-1.074 0.425-1.998 1.012-3.022 1.511-4.346 1.798-8.092 5.108-12.101 7.505-4.783 2.872-9.416 5.47-13.562 9.079-0.787 0.724-0.787 2.235-1.511 3.022-0.824 0.749-2.235 0.749-3.022 1.511-17.508 17.221-28.684 40.148-28.684 66.423 0 52.549 43.27 95.095 96.593 95.095v0.050c53.36 0 96.631-42.596 96.631-95.145-0.012-7.692-1.274-13.936-3.022-21.154zM873.097 218.736c0-16.596-13.662-30.183-30.196-30.183h-324.633c-16.534 0-30.196 13.587-30.196 30.183v75.476c0 16.571 13.662 30.196 30.196 30.196h324.633c16.534 0 30.196-13.624 30.196-30.196v-75.476zM1114.661 333.462c-51.899 0-93.609 41.709-93.609 93.609s41.709 93.609 93.609 93.609c51.849 0 93.609-41.709 93.609-93.609s-41.759-93.609-93.609-93.609z" />
<glyph unicode="&#xe62a;" glyph-name="uniE62A" horiz-adv-x="1742" d="M1430.908 547.571c-39.376 0-77.201-8.952-111.795-22.718l-97.861 181.734c-2.354 3.431-5.363 6.387-8.741 8.741l31.459 76.863c11.253 1.858 25.98 5.152 41.942 13.977 20.702 11.507 39.757 31.586 41.9 69.896 0 84.042-126.226 3.505-291.798 3.505-7.010 0-13.977-5.036-17.44-12.204-3.505-7.179-2.597-17.366 5.236-24.449 2.47-2.354 5.194-4.782 10.472-7.010s11.75-4.582 19.213-7.010c14.927-4.782 34.52-9.353 52.414-13.935 26.888-6.883 41.192-9.976 52.414-12.246l-31.427-78.626-553.9 3.494c2.724 10.314 7.59 30.361 8.741 33.201 6.809 16.986 9.902 34.066 5.236 52.456s-19.013 33.232-31.459 36.674c-28.408 7.949-19.794 29.685-5.236 29.717h79.503c57.65 0 86.512 76.863 42.807 76.863v-0.042c0 0-79.587 0-127.546 0-36.452 0-64.333 1.235-92.614-41.942-8.129-14.389-11.707-31.427-8.699-48.909 3.589-19.878 15.793-39.091 29.696-50.683 18.39-15.297 35.998-14.188 33.201-27.954-3.632-17.651-16.046-42.269-27.954-82.099-12.119-40.496-26.064-91.009-40.21-139.792-3.832-13.323-6.725-23.71-10.472-36.706-35.998 15.054-73.981 24.449-115.3 24.449-167.63 0-305.775-136.414-305.775-304.001 0-167.63 138.145-304.044 305.775-304.044 167.588 0 304.001 136.414 304.001 304.044 0 95.834-45.647 180.002-115.3 235.879 3.463 12.087 6.841 22.349 10.472 34.932l377.402-256.823c-1.151-5.067-1.731-10.346-1.731-15.751 0-42.924 40.496-76.863 89.109-76.863 3.674 0 6.925 1.32 10.472 1.774l26.223-62.928h-33.201c-12.003 2.396-24.861-7.706-25.357-19.92-0.538-12.204 11.465-23.341 23.584-22.021h57.692c1.689-0.412 3.505-0.412 5.236 0l61.155-1.731c12.087-1.932 24.618 8.699 24.618 20.934 0 12.309-12.541 22.897-24.618 20.997h-54.188l-31.459 71.627c16.616 7.791 30.266 19.973 38.479 34.943h73.359c14.843-153.948 144.574-274.316 302.27-274.316 167.63 0 304.044 136.414 304.044 304.044 0 167.567-136.414 303.98-304.044 303.98zM529.345 248.848c0-120.821-95.876-218.418-216.655-218.418-120.821 0-218.429 97.597-218.429 218.418 0 120.779 97.607 216.655 218.429 216.655 32.863 0 62.971-6.313 90.84-19.213-1.32-4.582-2.227-11.422-3.505-15.751-5.489-18.717-10.314-33.359-13.977-45.404-3.589-11.75-7.221-21.652-6.967-20.987-11.422-20.079-12.288-33.528-31.459-50.64-21.483-18.801-39.345-32.451-45.447-36.706-15.423-11.222-22.106-35.502-13.977-47.178 10.272-15.92 31.712-16.986 47.178-12.246 14.727 4.656 37.645 12.573 64.66 34.974 37.571 32.208 51.010 71.089 52.414 73.359l3.505 3.463v3.547c3.262 8.002 4.867 15.339 8.741 27.954 2.555 8.371 7.094 20.079 10.472 31.427 33.676-38.31 54.177-87.916 54.177-143.254zM1298.126 414.852l71.627-131.040h-151.995c9.976 53.533 39.049 99.138 80.368 131.040zM838.582 385.135h57.682l26.181-59.381-83.862 59.381zM918.95 243.612l34.974-24.449c4.698-3.009 10.145-4.782 15.708-5.236l7.010-17.482c-31.142-0.011-55.307 20.237-57.692 47.167zM1006.328 203.443l-5.236 10.472h19.213c-4.075-4.244-8.572-7.59-13.977-10.472zM962.655 323.938c-2.185-0.412-4.909 0.454-7.010 0l-26.181 61.155h34.932c19.709 3.22 19.709 38.722 0 41.942l-122.31 1.774c-16.701 1.362-29.274-21.567-19.213-34.932l-290.066 197.4c6.725 23.056 13.154 45.858 19.255 66.433l545.116-3.505-134.524-330.266zM1053.506 283.78c-3.378 5.637-7.421 11-12.246 15.74l138.061 335.46 76.863-143.297c-67.753-47.875-114.392-122.025-125.815-207.904h-76.863zM1430.908 25.215c-110.56 0-200.335 82.311-214.882 188.701h211.377c23.921-0.369 42.396 29.4 31.459 50.683l-99.592 183.465c22.802 8.002 46.017 13.977 71.627 13.977 120.821 0 218.429-97.607 218.429-218.429 0.011-120.79-97.597-218.397-218.418-218.397z" />
<glyph unicode="&#xe62b;" glyph-name="uniE62B" horiz-adv-x="643" d="M543.172 253.535l-160.526 151.107 51.394 310.343-106.599 85.738-192.524-92.434-115.049-118.169c0 0-27.985-55.415 3.116-79.681 32.562-25.402 73.355 30.891 73.355 30.891l99.816 95.506 85.937 32.748-69.767-288.196 233.397-195.961 16.702-155.795c0 0 10.966-92.077 60.48-88.516 0 0 52.609-8.597 45.83 101.959-6.803 110.568-25.56 210.46-25.56 210.46zM6.692 20.754c0 0-23.155-46.675 14.134-73.772 32.899-23.917 69.846 15.439 69.846 15.439l199.966 320.687-82.059 69.842-201.887-332.197zM598.83 537.719c-35.884 16.301-161.55 43.695-164.356 45.397l-15.217-92.005c0 0 134.97-44.774 161.117-52.101 26.132-7.315 56.411 14.9 58.975 47.779 1.159 14.8-10.641 37.352-40.519 50.93zM454.092 749.116c58.42-1.635 107.099 44.401 108.735 102.809 1.647 58.416-44.413 107.107-102.825 108.735-58.412 1.639-107.083-44.405-108.711-102.821-1.655-58.416 44.389-107.103 102.801-108.723z" />
<glyph unicode="&#xe62c;" glyph-name="uniE62C" d="M847.218 384c35.2 0 71.912 27.692 81.582 61.538l92.836 324.926c9.67 33.844-11.218 61.536-46.418 61.536h-655.218c0 70.692-57.308 128-128 128h-192v-128h192v-544c0-53.020 42.98-96 96-96h608c35.346 0 64 28.654 64 64s-28.654 64-64 64h-576v64h527.218zM320 704h578.806l-54.858-192h-523.948v192zM384 16c0-44-36-80-80-80h-32c-44 0-80 36-80 80v32c0 44 36 80 80 80h32c44 0 80-36 80-80v-32zM960 16c0-44-36-80-80-80h-32c-44 0-80 36-80 80v32c0 44 36 80 80 80h32c44 0 80-36 80-80v-32z" />
<glyph unicode="&#xe62d;" glyph-name="uniE62D" d="M981.188 799.892c-143.632 20.65-302.332 32.108-469.186 32.108-166.86 0-325.556-11.458-469.194-32.108-27.53-107.726-42.808-226.75-42.808-351.892 0-125.14 15.278-244.166 42.808-351.89 143.638-20.652 302.336-32.11 469.194-32.11 166.854 0 325.552 11.458 469.186 32.11 27.532 107.724 42.812 226.75 42.812 351.89 0 125.142-15.28 244.166-42.812 351.892zM384.002 256v384l320-192-320-192z" />
<glyph unicode="&#xe62e;" glyph-name="uniE62E" d="M0.806 90.336c-0.244 2.532-0.452 5.070-0.584 7.63 0.13-2.56 0.34-5.098 0.584-7.63zM235.908 394.852c92.010-2.738 153.734 92.698 137.862 213.198-15.894 120.48-103.396 217.168-195.408 219.922-92.026 2.73-153.74-89.482-137.852-210 15.882-120.468 103.352-220.374 195.398-223.12zM1024 704v85.31c0 93.88-76.782 170.69-170.658 170.69h-682.656c-92.276 0-168.012-74.232-170.564-165.926 58.362 51.386 139.324 94.316 222.874 94.316 89.304 0 357.244 0 357.244 0l-79.948-67.618h-113.268c75.13-28.804 115.156-116.124 115.156-205.722 0-75.248-41.81-139.954-100.888-185.968-57.644-44.902-68.572-63.708-68.572-101.878 0-32.578 61.746-88 94.032-110.788 94.382-66.538 124.916-128.312 124.916-231.456 0-16.428-2.042-32.83-6.066-48.96h307.742c93.874 0 170.656 76.75 170.656 170.69v533.308h-192v-191.998h-64v192h-191.998v64h191.998v192h64v-192h192zM185.886 194.064c21.614 0 41.422 0.59 61.936 0.59-27.146 26.334-48.626 58.6-48.626 98.38 0 23.608 7.564 46.336 18.134 66.52-10.782-0.77-21.79-0.994-33.126-0.994-74.356 0-137.506 24.076-184.204 63.854v-67.242l0.006-201.73c53.44 25.374 116.888 40.622 185.88 40.622zM3.42 72.742c-1.112 5.458-1.966 11.006-2.542 16.634 0.574-5.628 1.43-11.176 2.542-16.634zM455.45 7.154c-15.058 58.806-68.454 87.964-142.888 139.568-27.072 8.732-56.894 13.874-88.894 14.208-89.618 0.964-173.108-34.942-220.216-88.372 15.92-77.706 85.034-136.558 167.234-136.558h286.444c1.816 11.128 2.696 22.632 2.696 34.432 0 12.534-1.534 24.792-4.376 36.722z" />
<glyph unicode="&#xe62f;" glyph-name="uniE62F" d="M853.344 960h-682.66c-93.872 0-170.684-76.814-170.684-170.688v-682.626c0-93.938 76.812-170.686 170.684-170.686l682.66 0.002c93.876 0 170.656 76.746 170.656 170.688v682.622c0 93.874-76.782 170.688-170.656 170.688zM870.592 448h-166.592v-448h-192v448h-92.526v146.564h92.526v95.186c0 129.342 55.792 206.25 207.87 206.25h175.244v-158.57h-143.13c-42.482 0.070-47.752-22.152-47.752-63.512l-0.232-79.354h192l-25.408-146.564z" />
<glyph unicode="&#xe630;" glyph-name="uniE630" d="M853.342 960h-682.656c-93.874 0-170.686-76.81-170.686-170.69v-682.622c0-93.938 76.812-170.688 170.686-170.688h682.656c93.876 0 170.658 76.75 170.658 170.69v682.62c0 93.88-76.782 170.69-170.658 170.69zM838.052 618.166c0.328-7.342 0.49-14.728 0.49-22.148 0-226.214-169.216-487.068-478.658-487.068-95.004 0-183.434 28.348-257.886 76.918 13.16-1.588 26.552-2.394 40.13-2.394 78.822 0 151.358 27.37 208.934 73.282-73.616 1.38-135.744 50.876-157.154 118.882 10.274-2 20.812-3.074 31.652-3.074 15.344 0 30.206 2.096 44.32 6.008-76.96 15.732-134.95 84.916-134.95 167.856 0 0.722 0 1.438 0.016 2.152 22.68-12.82 48.624-20.52 76.2-21.41-45.142 30.698-74.842 83.092-74.842 142.488 0 31.37 8.294 60.778 22.778 86.058 82.974-103.57 206.936-171.72 346.754-178.862-2.87 12.532-4.358 25.596-4.358 39.014 0 94.538 75.326 171.18 168.23 171.18 48.39 0 92.118-20.786 122.802-54.058 38.32 7.676 74.324 21.92 106.832 41.542-12.562-39.976-39.234-73.522-73.966-94.71 34.026 4.138 66.452 13.34 96.62 26.954-22.546-34.324-51.070-64.476-83.944-88.61z" />
<glyph unicode="&#xe631;" glyph-name="uniE631" horiz-adv-x="864" d="M432 848c-229.76 0-416-186.24-416-416s186.24-416 416-416c229.76 0 416 186.24 416 416s-186.24 416-416 416zM640 420c0-17.696-14.336-32-32-32h-352c-17.696 0-32 14.304-32 32v32c0 17.664 14.304 32 32 32h352c17.664 0 32-14.336 32-32v-32z" />
<glyph unicode="&#xe632;" glyph-name="uniE632" horiz-adv-x="549" d="M579.294 725.606c0 109.568 0 120.269 0 120.269 0 40.448-128.358 114.125-286.72 114.125s-286.72-73.677-286.72-114.125c0 0 0-10.701 0-120.269s198.502-200.038 198.502-277.606c0-77.619-198.502-168.038-198.502-277.658 0-109.568 0-120.269 0-120.269 0-40.397 128.358-114.074 286.72-114.074s286.72 73.677 286.72 114.125c0 0 0 10.701 0 120.269 0 109.619-198.451 200.038-198.451 277.658 0 77.517 198.451 168.038 198.451 277.555zM84.702 840.755c35.635 22.477 102.451 55.45 210.637 55.45 108.237 0 205.107-55.45 205.107-55.45 7.27-4.403 35.738-19.661 16.23-31.181-42.957-25.446-126.925-52.224-224.154-52.224s-178.33 29.542-221.286 54.989c-19.507 11.571 13.466 28.416 13.466 28.416zM318.225 448c0-61.082 50.995-100.403 105.062-152.883 39.475-38.349 93.44-90.829 93.44-124.774v-67.994c-49.613 24.73-198.195 48.947-198.195 128.205 0 40.141-51.917 40.141-51.917 0 0-79.258-148.582-103.475-198.195-128.205v67.994c0 33.894 54.016 86.426 93.491 124.774 54.016 52.48 105.011 91.802 105.011 152.883s-50.995 100.403-105.011 152.883c-39.475 38.349-93.491 90.88-93.491 124.723l-2.406 51.2c52.531-28.262 135.834-55.245 226.56-55.245s174.438 26.982 226.97 55.245l-2.816-51.2c0-33.843-54.016-86.374-93.44-124.723-54.067-52.48-105.062-91.802-105.062-152.883z" />
<glyph unicode="&#xe633;" glyph-name="uniE633" d="M1024 530.744c0 200.926-58.792 363.938-131.482 365.226 0.292 0.006 0.578 0.030 0.872 0.030h-82.942c0 0-194.8-146.336-475.23-203.754-8.56-45.292-14.030-99.274-14.030-161.502s5.466-116.208 14.030-161.5c280.428-57.418 475.23-203.756 475.23-203.756h82.942c-0.292 0-0.578 0.024-0.872 0.032 72.696 1.288 131.482 164.298 131.482 365.224zM864.824 220.748c-9.382 0-19.532 9.742-24.746 15.548-12.63 14.064-24.792 35.96-35.188 63.328-23.256 61.232-36.066 143.31-36.066 231.124 0 87.81 12.81 169.89 36.066 231.122 10.394 27.368 22.562 49.266 35.188 63.328 5.214 5.812 15.364 15.552 24.746 15.552 9.38 0 19.536-9.744 24.744-15.552 12.634-14.064 24.796-35.958 35.188-63.328 23.258-61.23 36.068-143.312 36.068-231.122 0-87.804-12.81-169.888-36.068-231.124-10.39-27.368-22.562-49.264-35.188-63.328-5.208-5.806-15.36-15.548-24.744-15.548zM251.812 530.744c0 51.95 3.81 102.43 11.052 149.094-47.372-6.554-88.942-10.324-140.34-10.324-67.058 0-67.058 0-67.058 0l-55.466-94.686v-88.17l55.46-94.686c0 0 0 0 67.060 0 51.398 0 92.968-3.774 140.34-10.324-7.236 46.664-11.048 97.146-11.048 149.096zM368.15 317.828l-127.998 24.51 81.842-321.544c4.236-16.634 20.744-25.038 36.686-18.654l118.556 47.452c15.944 6.376 22.328 23.964 14.196 39.084l-123.282 229.152zM864.824 411.27c-3.618 0-7.528 3.754-9.538 5.992-4.87 5.42-9.556 13.86-13.562 24.408-8.962 23.6-13.9 55.234-13.9 89.078s4.938 65.478 13.9 89.078c4.006 10.548 8.696 18.988 13.562 24.408 2.010 2.24 5.92 5.994 9.538 5.994 3.616 0 7.53-3.756 9.538-5.994 4.87-5.42 9.556-13.858 13.56-24.408 8.964-23.598 13.902-55.234 13.902-89.078 0-33.842-4.938-65.478-13.902-89.078-4.004-10.548-8.696-18.988-13.56-24.408-2.008-2.238-5.92-5.992-9.538-5.992z" />
<glyph unicode="&#xe634;" glyph-name="uniE634" horiz-adv-x="951" d="M584.683 82.746l320 320c24.994 24.992 24.994 65.516 0 90.51l-320 320c-24.994 24.992-65.516 24.992-90.51 0-24.994-24.994-24.994-65.516 0-90.51l210.746-210.746h-613.49c-35.346 0-64-28.654-64-64s28.654-64 64-64h613.49l-210.746-210.746c-12.496-12.496-18.744-28.876-18.744-45.254s6.248-32.758 18.744-45.254c24.994-24.994 65.516-24.994 90.51 0z" />
<glyph unicode="&#xe635;" glyph-name="uniE635" horiz-adv-x="951" d="M411.429 165.49l-205.254 237.254 58.508 58.51 146.746-114.744 274.744 242.744 58.512-58.508zM795.201 832c0.078-0.066 0.162-0.15 0.228-0.23v-767.542c-0.066-0.078-0.15-0.162-0.228-0.228h-639.544c-0.080 0.066-0.162 0.15-0.228 0.228v767.544c0.066 0.080 0.15 0.162 0.23 0.228h-128.23v-768c0-70.4 57.6-128 128-128h640c70.4 0 128 57.6 128 128v768h-128.228zM603.429 832v64c0 35.346-28.654 64-64 64h-128c-35.346 0-64-28.654-64-64v-64h-128v-128h512v128h-128zM539.429 832h-128v64h128v-64z" />
<glyph unicode="&#xe636;" glyph-name="uniE636" horiz-adv-x="878" d="M146.286 192q0 14.857-10.857 25.714t-25.714 10.857-25.714-10.857-10.857-25.714 10.857-25.714 25.714-10.857 25.714 10.857 10.857 25.714zM804.571 521.143q0 29.143-22.286 51.143t-50.857 22h-201.143q0 33.143 27.429 91.143t27.429 91.714q0 56-18.286 82.857t-73.143 26.857q-14.857-14.857-21.714-48.571t-17.429-71.714-34-62.571q-12.571-13.143-44-52-2.286-2.857-13.143-17.143t-18-23.429-19.714-24.286-22.857-25.143-22-20.286-22.857-15.429-20.286-5.143h-18.286v-365.714h18.286q7.429 0 18-1.714t18.857-3.714 21.714-6.286 20-6.571 20.286-7.143 16.571-6q120.571-41.714 195.429-41.714h69.143q109.714 0 109.714 95.429 0 14.857-2.857 32 17.143 9.143 27.143 30t10 42-10.286 39.429q30.286 28.571 30.286 68 0 14.286-5.714 31.714t-14.286 27.143q18.286 0.571 30.571 26.857t12.286 46.286zM877.714 521.714q0-50.857-28-93.143 5.143-18.857 5.143-39.429 0-44-21.714-82.286 1.714-12 1.714-24.571 0-57.714-34.286-101.714 0.571-79.429-48.571-125.429t-129.714-46h-73.714q-54.857 0-108.286 12.857t-123.714 37.429q-66.286 22.857-78.857 22.857h-164.571q-30.286 0-51.714 21.429t-21.429 51.714v365.714q0 30.286 21.429 51.714t51.714 21.429h156.571q20.571 13.714 78.286 88.571 33.143 42.857 61.143 73.143 13.714 14.286 20.286 48.857t17.429 72.286 35.429 61.714q22.286 21.143 51.429 21.143 48 0 86.286-18.571t58.286-58 20-106.286q0-53.143-27.429-109.714h100.571q59.429 0 102.857-43.429t43.429-102.286z" />
<glyph unicode="&#xe637;" glyph-name="uniE637" horiz-adv-x="878" d="M146.286 704q0 14.857-10.857 25.714t-25.714 10.857-25.714-10.857-10.857-25.714 10.857-25.714 25.714-10.857 25.714 10.857 10.857 25.714zM804.571 374.857q0 20-12.286 46.286t-30.571 26.857q8.571 9.714 14.286 27.143t5.714 31.714q0 39.429-30.286 68 10.286 18.286 10.286 39.429t-10 42-27.143 30q2.857 17.143 2.857 32 0 48.571-28 72t-77.714 23.429h-73.143q-74.857 0-195.429-41.714-2.857-1.143-16.571-6t-20.286-7.143-20-6.571-21.714-6.286-18.857-3.714-18-1.714h-18.286v-365.714h18.286q9.143 0 20.286-5.143t22.857-15.429 22-20.286 22.857-25.143 19.714-24.286 18-23.429 13.143-17.143q31.429-38.857 44-52 23.429-24.571 34-62.571t17.429-71.714 21.714-48.571q54.857 0 73.143 26.857t18.286 82.857q0 33.714-27.429 91.714t-27.429 91.143h201.143q28.571 0 50.857 22t22.286 51.143zM877.714 374.286q0-58.857-43.429-102.286t-102.857-43.429h-100.571q27.429-56.571 27.429-109.714 0-67.429-20-106.286-20-39.429-58.286-58t-86.286-18.571q-29.143 0-51.429 21.143-19.429 18.857-30.857 46.857t-14.571 51.714-10 48.286-17.714 36.571q-27.429 28.571-61.143 72.571-57.714 74.857-78.286 88.571h-156.571q-30.286 0-51.714 21.429t-21.429 51.714v365.714q0 30.286 21.429 51.714t51.714 21.429h164.571q12.571 0 78.857 22.857 73.143 25.143 127.429 37.714t114.286 12.571h64q80 0 129.429-45.143t48.857-123.429v-2.857q34.286-44 34.286-101.714 0-12.571-1.714-24.571 21.714-38.286 21.714-82.286 0-20.571-5.143-39.429 28-42.286 28-93.143z" />
<glyph unicode="&#xe638;" glyph-name="uniE638" d="M512 960c-282.752 0-512-229.248-512-512s229.248-512 512-512 512 229.248 512 512-229.248 512-512 512zM432.64 211.744l-235.584 235.616 90.496 90.496 145.056-145.12 307.744 307.744 90.496-90.496-398.208-398.24z" />
<glyph unicode="&#xe639;" glyph-name="uniE639" horiz-adv-x="1086" d="M424.571 807.643c41.003 11.516 64.95 54.243 53.493 95.438-11.47 41.189-54.004 65.242-95.013 53.722-41.006-11.509-64.954-54.243-53.487-95.422 11.46-41.196 54-65.255 95.006-53.739zM203.076 447.306c0.249 0.654 42.432 72.982 64.427 111.662l10.868-6.883c0.985-3.272 96.897-133.833 96.897-133.833l-59.14-122.065c-8.045-16.6-1.171-36.619 15.37-44.696 16.512-8.084 36.432-1.168 44.483 15.439 0 0 64.715 134.052 65.085 135.011 7.786 11.189 8.356 26.457 0.124 38.287l-76.267 109.637c11.241 28.685 40.077 101.782 53.83 137.262l1.528 3.429c20.114-21.762 52.918-57.167 53.637-57.753 9.366-10.816 25.355-13.521 37.77-5.621l82.097 52.322c13.682 8.722 17.732 26.935 9.043 40.679-8.663 13.741-26.797 17.814-40.479 9.101l-61.682-39.318c0 0-62.251 70.705-92.203 81.851-34.064 13.901-54.612 23.114-88.241 36.062-9.422 3.775-34.093 4.61-36.828 4.188 0 0-103.777-16.266-105.158-16.482-12.782-1.983-22.181-12.026-24.249-24.157l-9.196-109.355c-1.299-16.217 10.734-30.442 26.889-31.757 16.135-1.299 30.295 10.796 31.616 27.026l0.788 9.854c0.098 0.628 0.291 1.224 0.344 1.878l5.987 71.369 57.334 9.53c-19.076-52.983-46.217-126.521-63.472-165.26l-47.807-83.575-109.025 42.141c-17.156 6.628-36.422-1.953-43.015-19.201-6.612-17.218 1.947-36.583 19.109-43.198l136.5-52.774c17.153-6.625 36.435 1.953 43.034 19.201zM1054.658 1.749h-60.805v617.688c0 12.648-10.211 22.901-22.8 22.901h-166.179c-12.592 0-22.8-10.253-22.8-22.901v-617.691h-51.903v399.857c0 12.645-10.204 22.898-22.8 22.898h-166.176c-12.592 0-22.8-10.253-22.8-22.898v-399.857h-51.903v182.014c0 12.648-10.207 22.901-22.8 22.901h-166.173c-12.592 0-22.8-10.253-22.8-22.901v-182.014h-60.805c-17.99 0-32.568-14.65-32.568-32.719 0-18.062 14.581-32.712 32.568-32.712h860.742c17.987 0 32.568 14.65 32.568 32.712 0 18.072-14.581 32.722-32.568 32.722z" />
<glyph unicode="&#xe63a;" glyph-name="uniE63A" horiz-adv-x="1061" d="M934 366q-27-11-69.5-9.5t-96.5 20.5q10 35 10 71 0 110-80 186 33 38 65 61t71 35h3q45 14 83-4t47-57q11-48-21-100 32-10 55.5-32t30.5-47q10-38-18.5-74t-78.5-50h-1zM522 704q-78 0-142-43-32 49-41 87t-9 85q0 53 28 90.5t68 37.5q25 0 51.5-15.5t44.5-41.5q18 26 44.5 41.5t51.5 15.5q40 0 68-37.5t28-90.5q0-47-9-85t-41-87q-64 43-142 43zM266 449q0-37 10-72-55-19-97-20.5t-70 9.5q-50 14-78.5 50t-18.5 74q7 25 30.5 47t55.5 32q-32 52-21 100 9 39 47 57t83 4v0h3q39-12 71-35t65-61q-80-76-80-185zM159 207v1q1 1 2 3.5t2 4 2.5 3.5 1.5 3q23 38 51.5 63t74.5 49q30-60 86.5-98t125.5-43q-5-58-10-97 1-34-12-68 1-8-8-18 3 4 7 16-5-11-7-16-25-46-66-65t-74 1q-22 14-36.5 44t-15.5 64q-28-18-61.5-20.5t-55.5 10.5q-28 15-28.5 68t20.5 94zM330 448.5q0 79.5 56 135.5t135.5 56 136-56 56.5-135.5-56.5-136-136-56.5-135.5 56.5-56 136zM751 334q46-24 74.5-49t50.5-63q1-1 2.5-3t2.5-3.5 2-4.5 2-3v-1l1-1q21-40 20.5-93.5t-28.5-68.5q-22-13-55.5-10.5t-61.5 20.5q-1-34-15.5-64t-36.5-44q-33-20-74-1t-66 66q-1 3-7 15 4-12 7-15-9 9-8 17-13 34-12 68-5 39-10 97 69 5 125.5 43t86.5 98z" />
<glyph unicode="&#xe63b;" glyph-name="uniE63B" horiz-adv-x="951" d="M734.945 640c18.126 12.88 35.512 27.216 51.444 43.148 33.402 33.402 55.746 74.5 62.912 115.722 7.858 45.186-3.672 87.14-31.63 115.1-22.3 22.298-52.51 34.086-87.364 34.086-49.632 0-101.922-23.824-143.46-65.362-66.476-66.476-105.226-158.238-126.076-223.722-15.44 65.802-46.206 154.644-106.018 214.458-32.094 32.092-73.114 48.57-111.846 48.57-31.654 0-61.78-11.004-84.26-33.486-49.986-49.988-43.232-137.786 15.086-196.104 20.792-20.792 45.098-38.062 70.72-52.412h-217.024v-256h64v-448h768v448.002h64v256h-188.484zM637.755 831.782c27.724 27.724 62.322 44.274 92.55 44.274 10.7 0 25.708-2.254 36.45-12.998 26.030-26.028 11.412-86.308-31.28-128.998-43.946-43.946-103.060-74.168-154.432-94.060h-50.672c18.568 57.548 52.058 136.456 107.384 191.782zM197.363 799.11c-0.702 9.12-0.050 26.248 12.196 38.494 10.244 10.244 23.788 12.396 33.348 12.396v0c21.258 0 43.468-10.016 60.932-27.48 33.872-33.872 61.766-87.772 80.668-155.876 0.51-1.84 1.008-3.67 1.496-5.486-1.816 0.486-3.646 0.984-5.486 1.496-68.104 18.904-122.002 46.798-155.874 80.67-15.828 15.826-25.77 36.16-27.28 55.786zM411.429 0h-256v416h256v-416zM411.429 448h-320v128h320v-128zM795.429 0h-256v416h256v-416zM859.429 448h-320v128h320v-128z" />
<glyph unicode="&#xe63c;" glyph-name="uniE63C" d="M1009.376 954.88c-5.312 3.424-11.36 5.12-17.376 5.12-6.176 0-12.384-1.76-17.76-5.376l-960-640c-9.888-6.56-15.328-18.112-14.048-29.952 1.216-11.808 8.896-22.016 19.936-26.368l250.368-100.192 117.728-206.016c5.632-9.888 16.096-16 27.424-16.128 0.128 0 0.224 0 0.352 0 11.232 0 21.664 5.952 27.424 15.552l66.464 110.816 310.24-124.064c3.808-1.536 7.808-2.272 11.872-2.272 5.44 0 10.816 1.376 15.68 4.128 8.448 4.736 14.24 13.056 15.872 22.624l160 960c2.080 12.576-3.488 25.184-14.176 32.128zM100.352 295.136l741.6 494.432-539.2-577.184c-2.848 1.696-5.376 3.936-8.512 5.184l-193.888 77.568zM326.048 189.888c-0.064 0.128-0.16 0.192-0.224 0.32l606.176 648.8-516.768-805.184-89.184 156.064zM806.944 12.512l-273.312 109.312c-6.496 2.56-13.248 3.424-19.936 3.808l420.864 652.416-127.616-765.536z" />
<glyph unicode="&#xe63d;" glyph-name="uniE63D" horiz-adv-x="951" d="M891.429 512h-832c-17.696 0-32 14.304-32 32s14.304 32 32 32h64l192 352c0 17.696 14.304 32 32 32h64c17.696 0 32-14.304 32-32l-192-352h448l-192 352c0 17.696 14.304 32 32 32h96c17.696 0 32-14.304 32-32l160-352h64c17.696 0 32-14.304 32-32s-14.304-32-32-32zM59.429 448h832c17.696 0 32-14.304 32-32l-64-448c0-17.696-14.304-32-32-32h-704c-17.696 0-32 14.304-32 32l-64 448c0 17.696 14.304 32 32 32zM667.429 64h64c17.696 0 32 14.304 32 32l32 192c0 17.696-14.304 32-32 32h-64c-17.696 0-32-14.304-32-32l-32-192c0-17.696 14.304-32 32-32zM411.429 96c0-17.696 14.304-32 32-32h64c17.696 0 32 14.304 32 32v192c0 17.696-14.304 32-32 32h-64c-17.696 0-32-14.304-32-32v-192zM187.429 96c0-17.696 14.304-32 32-32h64c17.696 0 32 14.304 32 32l-32 192c0 17.696-14.304 32-32 32h-64c-17.696 0-32-14.304-32-32l32-192z" />
<glyph unicode="&#xe63e;" glyph-name="uniE63E" horiz-adv-x="951" d="M855.231 222.771c13.875-13.722 36.301-13.722 50.125 0 13.875 13.722 13.875 35.891 0 49.613l-404.89 400.896c-13.824 13.722-36.25 13.722-50.074 0l-404.89-400.896c-13.824-13.722-13.875-35.891 0-49.613s36.25-13.722 50.125 0l379.802 365.619 379.802-365.619z" />
<glyph unicode="&#xe63f;" glyph-name="uniE63F" horiz-adv-x="903" d="M350.176 10.589c-151.547 0-274.388 122.924-274.388 274.222 0 108.988 57.164 197.447 149.129 241.76l-0.669 84.955c-130.769-50.906-223.232-177.586-223.232-326.212 0-192.855 156.637-349.495 349.993-349.495 138.529 0 249.935 70.098 306.6 186.931l-41.059 96.138c-29.708-119.759-137.86-208.299-266.376-208.299zM879.591 138.937l-88.372-33.299-130.102 346.993-305.848 15.604-0.168 52.824 220.562 0.417v88.044l-220.478-0.417v151.643c43.186 11.644 74.94 51.022 74.94 98.126 0 55.913-45.397 101.312-101.475 101.312-56.081 0-101.561-45.397-101.561-101.312 0-30.893 13.697-58.449 35.3-77.057v-397.031l88.708-4.424 246.347-11.767 136.441-360.51 170.66 64.26-24.954 66.592z" />
<glyph unicode="&#xe640;" glyph-name="uniE640" d="M512-64c282.767 0 511.99 229.233 511.99 512s-229.222 512-511.99 512c-282.767 0-511.99-229.233-511.99-512s229.222-512 511.99-512zM508.713 799.58c47.063 0 79.063-35.768 79.063-81.9 0-48.957-34.826-82.831-79.063-82.831-43.305 0-78.141 33.884-78.141 82.831 0 48.005 34.836 81.9 78.141 81.9zM384.451 135.936c55.542 0 60.252 8.468 60.252 78.121v215.593c0 69.652-3.758 74.363-60.252 74.363v37.642c57.426 3.779 118.61 18.842 183.572 46.131l16.005-8.468v-366.182c0-68.721 5.642-77.189 55.532-77.189v-39.516h-255.109v39.506z" />
<glyph unicode="&#xe641;" glyph-name="uniE641" horiz-adv-x="1631" d="M1299.098 223.414c-79.37 0-143.75-64.315-143.75-143.75 0-79.348 64.38-143.642 143.75-143.642s143.642 64.294 143.642 143.642c0 79.413-64.272 143.75-143.642 143.75zM1299.098 17.915c-34.142 0-61.835 27.628-61.835 61.727 0 34.142 27.693 61.814 61.835 61.814 34.099 0 61.749-27.672 61.749-61.814 0-34.077-27.65-61.727-61.749-61.727zM1433.66 383.232c0 0-287.737 0-459.633 0-0.324 108.961-0.669 222.128-0.582 290.778 0 41.475-47.579 44.516-47.579 44.516s-271.798 0-271.798 0c-72.727 0-113.641-45.983-113.641-45.983l-165.986-190.142c0 0-268.563-47.191-319.269-84.028-26.119-34.573-30.734-162.212-30.734-162.212h115.237c35.63 0 44.408 0.604 51.267 1.229 27.111 15.896 58.578 25.17 92.289 25.17 58.018 0 109.608-27.089 143.081-69.233 23.811-30.001 38.348-67.637 39.448-108.702h507.73c0.108-0.841 0.194-0.755 0.259 0h142.715c2.653 98.759 83.295 177.935 182.637 177.935s179.876-79.176 182.529-177.935h83.856c0 0 61.21 2.523 61.21 86.423 0 7.98 0 114.353 0 114.353l-193.033 97.832zM104.734 257.685h-46.393c-1.337 13.027 12.186 104.281 16.37 111.894 4.163 7.592 52.13 1.725 52.13 1.725l-22.107-113.62zM869.25 508.455c0-16.284-13.178-29.483-29.483-29.483h-299.47c-48.981 0-53.596 16.974-35.177 46.134l81.397 112.347c19.972 22.733 54.373 29.526 70.635 29.526h182.615c16.305 0 29.483-13.243 29.483-29.526v-128.998zM3.667 193.305c-15.356-59.118 20.835-102.296 46.479-108.702 6.988 0 25.040 0 50.469 0 1.122 41.065 15.658 78.701 39.512 108.702h-136.46zM283.273 223.414c-79.391 0-143.728-64.315-143.728-143.75 0-79.348 64.337-143.642 143.728-143.642 79.37 0 143.621 64.294 143.621 143.642 0 79.413-64.251 143.75-143.621 143.75zM283.273 11.25c-37.83 0-68.521 30.648-68.521 68.413 0 37.83 30.691 68.478 68.521 68.478 37.787 0 68.413-30.648 68.413-68.478 0-37.765-30.626-68.413-68.413-68.413zM870.631 784.114c0 12.876-7.376 23.315-16.478 23.315h-92.203c-9.080 0-16.456-10.439-16.456-23.315v-34.66h125.137v34.66zM1616.966 509.965c-10.806 3.321-22.258-2.739-25.601-13.545-4.551-14.709-17.017-26.313-33.258-28.858h0.022c-2.2-0.345-4.357-0.496-6.514-0.496-19.993 0-37.744 14.623-40.893 35.069-0.367 2.221-0.496 4.378-0.496 6.514 0 19.993 14.623 37.722 35.048 40.893 5.414 0.841 10.18 3.731 13.394 8.153 3.192 4.421 4.508 9.835 3.667 15.227 0 0.022-1.725 10.913-3.753 23.962 6.859 7.139 10.504 17.19 8.864 27.715-1.488 9.468-3.386 21.46-4.896 31.058-0.755 4.81-1.402 9.015-1.876 12.035-0.259 1.51-0.453 2.718-0.561 3.559l-0.151 0.971-0.065 0.302c0 0.065-0.022 0.151-0.065 0.237-0.022 0.324-0.086 0.647-0.173 1.035-0.022 0.065-0.043 0.129-0.065 0.194-0.216 1.078-0.474 2.286-1.014 3.904-0.043 0.065-0.065 0.151-0.108 0.216-0.086 0.302-0.237 0.561-0.345 0.863-0.065 0.129-0.129 0.28-0.194 0.431-0.151 0.388-0.302 0.776-0.474 1.143-0.302 0.755-0.625 1.445-1.1 2.308-0.367 0.647-0.733 1.251-1.122 1.855-0.431 0.69-0.906 1.359-1.359 2.006-0.194 0.259-0.345 0.518-0.518 0.755-0.194 0.259-0.259 0.431-0.453 0.69 0 0.022-0.022 0.043-0.043 0.086-0.108 0.129-0.259 0.237-0.367 0.367-0.259 0.324-0.647 0.647-0.927 0.971-0.324 0.324-0.518 0.712-0.841 1.014-0.216 0.216-0.496 0.388-0.733 0.604-0.345 0.345-0.625 0.669-1.014 1.014-0.625 0.518-1.316 0.949-1.984 1.423-0.647 0.474-1.273 0.971-1.963 1.402-0.367 0.237-0.669 0.474-1.014 0.69-0.086 0.022-0.151 0.086-0.216 0.129-0.216 0.129-0.453 0.173-0.69 0.302-0.561 0.302-1.165 0.539-1.725 0.82-0.561 0.259-1.122 0.582-1.682 0.82-0.906 0.367-1.833 0.625-2.761 0.906-0.625 0.194-1.186 0.345-1.812 0.496-0.022 0-0.043 0.022-0.086 0.022-0.065 0-0.129 0.022-0.194 0.043l-26.054 166.332c2.178 3.257 3.839 5.802 4.637 7.161 15.313 25.558 17.556 62.072-8.066 78.572-42.489 27.327-82.67-18.656-82.67-18.656-77.019-92.526-260.713-301.454-342.023-393.657-46.047-22.107-77.407-64.79-78.076-113.986h300.009c-0.453 34.12-15.788 65.006-40.461 88.17 52.065 73.827 173.492 246.133 226.441 322.828l22.021-140.687c-2.243-1.359-4.335-2.869-6.212-4.745-6.082-6.082-9.576-14.515-9.576-23.142 0-0.388 0-0.776 0.022-1.229 0.022-0.561 0.043-0.949 0.065-1.273 0.022-0.216 0.043-0.496 0.086-0.755l0.108-0.971 0.086-0.625c0.065-0.496 0.173-1.1 0.453-2.804 0-0.022 0-0.043 0-0.065 1.165-7.333 4.659-29.57 7.096-45.249 1.531-9.835 7.398-17.815 15.227-22.668 0.431-2.739 0.841-5.349 1.229-7.829-29.872-12.898-49.887-42.23-49.887-75.315 0-4.249 0.345-8.541 1.014-12.876 6.427-40.655 41.367-69.643 81.332-69.643 4.249 0 8.541 0.345 12.833 0.992h0.022c32.158 5.090 57.069 28.125 66.041 57.263 3.257 10.784-2.782 22.236-13.588 25.558z" />
<glyph unicode="&#xe642;" glyph-name="uniE642" d="M858.931 21.279v328.458h0.451c0 25.815-20.859 46.705-46.653 46.705-25.815 0-46.653-20.859-46.653-46.705v-328.458h-111.155v328.458h0.492c0 25.815-20.859 46.705-46.664 46.705s-46.674-20.859-46.674-46.705v-328.458h-111.165v328.458h0.522c0 25.815-20.9 46.705-46.715 46.705-25.723 0-46.653-20.859-46.653-46.705v-328.458h-111.094v328.458h0.512c0 25.815-20.92 46.705-46.715 46.705-25.764 0-46.653-20.859-46.653-46.705v-328.458h-116.736v-74.936h938.803v74.936h-117.248zM905.042 501.494v66.212h-796.549v-66.212h-71.117v-74.957h938.803v74.957zM613.734 626.831c-15.555-9.421-41.933-18.842-72.079-18.842-42.875 0-81.5 16.957-106.455 48.517-15.084 17.428-25.436 40.98-29.676 69.724h-30.147v29.215h26.378c0 2.355 0 4.71 0 7.066 0 6.124 0.471 12.247 0.942 17.428h-27.32v29.215h31.56c5.652 29.215 18.371 53.238 35.328 71.608 25.436 27.791 59.832 43.817 101.765 43.817 28.262 0 51.825-7.066 67.369-14.602l-11.776-43.336c-12.247 6.124-31.56 12.247-52.756 12.247-23.562 0-44.288-8.479-59.832-25.907-9.902-10.363-16.957-25.907-20.726-43.807h123.433v-29.215h-129.116c-0.952-5.181-0.952-10.834-0.952-16.957 0-2.826 0-4.71 0-7.537h130.028v-29.215h-124.836c3.287-19.784 10.363-35.328 20.255-45.691 16.015-17.428 38.625-25.436 63.13-25.436 23.081 0 44.749 8.008 55.593 13.66l9.892-41.953z" />
<glyph unicode="&#xe643;" glyph-name="uniE643" horiz-adv-x="771" d="M365.619 658.534c0-13.476-10.66-23.962-24.218-23.962h-253.471c-13.66 0-24.228 10.486-24.228 23.962v213.729c0 13.476 10.568 23.962 24.228 23.962h253.471c13.558 0 24.218-10.486 24.218-23.962v-213.729zM661.115 631.224c-32.072 7.045-43.704 23.521-43.704 38.687v55.235c0 0 21.32-4.762 26.429-6.083 10.394-2.734 16.998-18.678 17.275-32.604 0.348-13.926 0-55.235 0-55.235zM725.688 295.639c0 0.532-8.888 67.84-8.888 67.84v310.825c0 33.3-10.926 60.355-33.485 83.077l-143.964 143.247c-9.953 0-37.437-27.402-37.437-27.402 0-9.953 71.455-80.876 71.455-80.876l-2.12-120.607c0-42.824 34.796-77.527 77.804-77.527l19.292-0.266-6.871-230.472 9.605-79.032 43.264-233.206c1.597-37.878-33.044-60.426-60.355-60.426-25.283 0-54.62 20.879-54.62 47.841l0.532 408.689c0 49.695-40.346 90.040-90.040 90.040 0 0-86.426 0-86.866 0 6.083 0.338 6.339 267.643 6.339 324.383 0 6.707 0 10.496 0 10.496-0.020 48.364-39.485 87.736-87.941 87.736h-253.46c-48.466 0-87.931-39.373-87.931-87.736v-936.264h429.455l0.297 543.949h81.060c18.586 0 33.741-15.165 33.741-33.741v-407.552c0-54.723 51.098-102.646 109.425-102.646 55.060 0 116.726 43.786 116.726 102.646-0.963 13.568-45.015 256.983-45.015 256.983z" />
<glyph unicode="&#xe644;" glyph-name="uniE644" horiz-adv-x="1017" d="M951.552 821.77c44.595 0 65.413-26.757 65.413-59.453v-277.924c0-31.212-23.788-56.474-54.999-59.433l-600.443-66.898c-49.029-5.949-54.999-69.837 2.99-69.837h569.231c65.352 0 65.352-96.614 0-96.614h-581.14c-130.816 0-179.835 144.138-77.302 219.955l52.019 38.646-184.269 402.76h-90.644c-69.888 0-69.888 107.018 0 107.018h105.533c53.453 0 68.342-25.293 84.664-63.918l37.192-74.312h671.754zM310.989 28.129c0-50.524-40.11-92.129-93.624-92.129-50.524 0-92.129 41.605-92.129 92.129 0 52.009 41.605 93.635 92.129 93.635 53.514-0.010 93.624-41.626 93.624-93.635zM364.503 637.481h150.067l-32.645 101.069h-163.523l46.1-101.069zM566.589 463.585l-38.625 120.381h-141.22l60.979-132.28 118.866 11.899zM535.378 738.54l31.212-101.069h147.128l-23.726 101.069h-154.614zM752.394 482.898l-29.706 101.069h-141.22l37.13-114.432 133.796 13.363zM935.168 738.54h-191.683l22.252-101.069h169.431v101.069zM939.653 28.129c0-50.524-40.12-92.129-92.14-92.129-52.009 0-93.624 41.605-93.624 92.129 0 52.009 41.605 93.635 93.624 93.635 52.019-0.010 92.14-41.626 92.14-93.635zM935.168 583.967h-157.542l23.798-93.635 133.745 13.363v80.271z" />
<glyph unicode="&#xe645;" glyph-name="uniE645" horiz-adv-x="1030" d="M112.565 85.331v-149.331h-78.221v546.618c0 21.598 17.507 39.311 39.105 39.311v0c21.876 0 39.105-17.713 39.105-39.311v-323.218h882.335v-223.399h-78.891v149.331h-803.434zM233.127 325.105c39.116 0 70.781 31.655 70.781 70.977 0 39.043-31.665 70.709-70.781 70.709-39.311 0-70.977-31.665-70.977-70.709 0-39.322 31.665-70.977 70.977-70.977zM996.096 218.165l-0.268 97.541c-0.268 30.996-26.297 52.326-56.478 56.087l-556.953 55.407c-1.206 0.268-2.143 0.804-3.153 0.804-19.187 0-34.819-15.694-34.819-34.746v-105.187h-145.715c-19.455 0-35.014-15.838-35.014-35.014 0-19.321 15.57-34.891 35.014-34.891h797.386zM1030.44 703.596l-514.55 255.735-0.206 0.67-0.464-0.268-0.464 0.268-0.206-0.67-514.55-255.735 42.866-86.268 472.354 234.796 472.354-234.796z" />
<glyph unicode="&#xe646;" glyph-name="uniE646" horiz-adv-x="731" d="M455.808 229.12c-40.735-29.798-65.126-75.141-73.073-127.048l167.987 122.911c2.673 1.956 6.42 1.382 8.376-1.29 1.946-2.683 1.372-6.431-1.3-8.376l-167.977-122.941c51.866-8.141 102.472 1.413 143.196 31.212 42.885 31.375 67.717 79.974 74.23 135.332-54.733 10.537-108.554 1.577-151.439-29.798zM180.7 224.983l167.987-122.911c-7.936 51.907-32.338 97.249-73.073 127.048-42.885 31.375-96.707 40.335-151.45 29.798 6.513-55.357 31.345-103.946 74.23-135.332 40.735-29.798 91.331-39.352 143.206-31.212l-167.997 122.931c-2.673 1.946-3.246 5.704-1.3 8.376 1.966 2.673 5.714 3.256 8.397 1.3zM438.43 684.042c373.965 215.788-72.602 473.754-72.694 41.994 0.092 431.759-446.566 174.019-72.714-41.964-373.852 215.982-373.985-299.735-0.031-83.948-339.425-195.86-2.898-426.424 62.218-144.497v-509.133c0-5.796 4.69-10.496 10.496-10.496 5.796 0 10.496 4.7 10.496 10.496v508.703c65.239-281.303 401.388-51.036 62.198 144.906 373.883-215.982 373.985 299.725 0.031 83.937zM365.716 597.115c-24.832 0-44.974 20.132-44.974 44.974s20.142 44.974 44.974 44.974 44.974-20.132 44.974-44.974c0-24.842-20.142-44.974-44.974-44.974z" />
<glyph unicode="&#xe647;" glyph-name="uniE647" d="M686.305 281.723c41.032 9.984 99.297 22.241 160.297 28.774 2.765 13.916 4.26 28.129 4.26 42.609 0 5.417-0.225 10.813-0.625 16.159v77.384c-28.57-67.492-87.081-125.245-163.932-164.925zM441.764 243.558c225.946 0 409.108 133.059 409.108 297.196s-183.163 297.185-409.108 297.185c-225.946 0-409.108-133.059-409.108-297.185-0.010-164.137 183.163-297.196 409.108-297.196zM100.557 540.774c0 47.78 53.32 86.508 119.091 86.508s119.091-38.738 119.091-86.508c0-47.78-53.32-86.518-119.091-86.518-65.782 0-119.091 38.738-119.091 86.518zM782.971 540.774c0-47.78-53.34-86.518-119.112-86.518s-119.091 38.738-119.091 86.518c0 47.78 53.32 86.508 119.091 86.508s119.112-38.738 119.112-86.508zM322.652 379.412c0 47.77 53.33 86.518 119.081 86.518 65.782 0 119.101-38.748 119.101-86.518 0-47.79-53.33-86.508-119.101-86.508-65.761 0-119.081 38.717-119.081 86.508zM411.402 540.764c0 12.175 13.599 22.047 30.362 22.047s30.362-9.871 30.362-22.047c0-12.175-13.599-22.057-30.362-22.057s-30.362 9.871-30.362 22.057zM560.845 702.095c0-47.78-53.33-86.518-119.101-86.518-65.761 0-119.081 38.738-119.081 86.518 0 47.79 53.33 86.518 119.081 86.518 65.772 0.010 119.101-38.728 119.101-86.518zM875.356 300.431c-109.957-10.004-248.269-45.343-308.951-61.921-39.465-8.888-81.295-13.711-124.652-13.711-191.744 0-354.437 93.624-408.648 222.218v-80.65c-0.266-4.403-0.461-8.817-0.461-13.261 0-164.147 183.163-297.196 409.108-297.196 74.291 0 143.903 14.459 203.94 39.598 225.362 58.941 350.136 31.713 350.136 31.713v167.639c-28.344 9.441-71.608 10.004-120.474 5.571z" />
<glyph unicode="&#xe648;" glyph-name="uniE648" d="M574.003 329.892l-59.116 47.411c-22.907-6.799-46.602-10.22-70.738-10.22-56.084 0-111.104 19.343-154.931 54.456-51.732 41.462-84.224 100.577-91.474 166.461-3.113 28.242-1.393 56.279 4.813 83.169-42.414-58.071-53.514-136.52-22.047-206.858 31.816-71.137 98.775-115.415 171.233-121.764l33.208-74.24 85.893-32.225-25.59-65.772 66.048-24.76-25.59-65.802 67.195-25.18-26.675-68.485 0.85-1.004 115.722-43.315c13.199-4.997 22.057-1.638 27.699 12.841l36.096 92.6-126.669 283.361-5.929-0.676zM214.211 949.76c-62.659 0-118.702-29.727-155.668-76.257-28.57-35.922-45.742-81.879-45.742-131.891 0-80.22 44.237-149.873 108.769-184.596 0.635 18.934 3.42 37.847 8.468 56.422-39.025 28.078-64.676 75.039-64.676 128.174 0 36.332 12.493 69.386 32.543 95.898 27.29 36.086 69.028 59.699 116.316 59.699 82.074 0 148.869-69.796 148.869-155.597 0-20.623-5.96-39.946-11.448-57.948-3.809-12.483 0.020-0.010 0.020-0.010-4.25-10.629-1.423-23.214 7.946-30.73 6.031-4.833 12.36-5.837 16.589-5.837 8.202 0 15.831 3.635 20.91 9.974 2.611 3.256 4.239 6.953 5.11 10.772 8.52 22.958 13.414 47.77 13.414 73.789-0.010 114.77-90.368 208.138-201.421 208.138zM983.613 224.102l-10.24 98.877-324.403 260.024c11.090 70.963-14.879 145.705-74.957 193.884-38.543 30.894-84.726 45.681-130.56 45.445 8.468-25.334 13.128-52.47 13.128-80.712 0-29.133-5.11-58.030-15.196-85.934-2.458-8.95-6.595-17.080-12.319-24.238-12.892-16.097-32.164-25.324-52.879-25.324-15.483 0-30.085 5.12-42.22 14.848-18.422 14.776-27.566 37.591-24.73 60.774 0.215 2.458 0.666 5.038 1.382 7.741l0.092 0.44 0.113 0.369c0.522 2.038 1.126 4.065 1.833 6.052 4.864 15.954 9.441 31.027 9.441 45.271 0 12.718-2.038 24.914-5.652 36.352-12.186-9.605-23.583-20.552-33.7-33.178-71.608-89.324-57.221-219.72 32.072-291.287 60.795-48.732 140.595-57.549 207.985-30.075l63.437-50.883 91.136 10.639 7.24-70.195 70.124 8.161 7.281-70.185 71.301 8.325 7.557-73.165 1.239-0.44 122.665 14.326c14.080 1.638 20.429 8.581 18.831 24.084z" />
<glyph unicode="&#xe649;" glyph-name="uniE649" horiz-adv-x="963" d="M364.8 846.746l-14.879-9.605c0 0-8.52 0.154-26.491-12.8-12.278-8.858-12.38-13.681-18.268-18.637s-20.439-3.451-20.439-3.451 16.415 2.826 15.176 7.158c-0.512 1.823-4.393 3.021-10.23 2.959-11.93-0.164-17.807 2.15-17.807 2.15s5.325-0.717 16.108 1.546c10.301 2.171 17.725 2.888 23.931 7.229 6.185 4.332 17.992 14.828 32.154 19.886 12.995 4.649 20.746 3.564 20.746 3.564zM784.845 761.549c-7.035 30.72-18.053 58.655-31.775 80.957-30.976 50.381-71.311 87.859-127.212 105.748-103.281 33.044-170.22-14.828-192.492-22.723-15.698-5.55-31.805 4.966-56.996-11.96-10.783-7.25-53.391-8.663-83.436-11.981-24.76-2.755-17.152-33.884-14.684-40.489 2.58-6.892 6.922-11.878 6.922-11.878s-0.614 9.574 3.103 9.554c4.506-0.031 23.235-14.961 23.235-14.961s5.059 14.93 16.876 15.022c16.773 0.154 39.25-2.437 50.34-1.864 19.845 1.055-13.322-22.61-13.322-22.61s-40.274-21.074-38.195-31.089c2.14-10.363 28.713-9.677 34.284-8.673 22.088 3.983 86.897 43.776 95.007 73.114 7.424 26.849 54.057 44.513 93.245 41.001 72.376-6.513 113.080-36.465 153.344-111.852 5.898-10.998 9.82-22.886 13.373-35.318h68.383zM481.28 741.724h-480.809c0 0 29.737-123.914 377.539-179.272 61.635-9.81 63.611-51.835 63.611-61.133 0-0.635 0-3.267 0-7.25 29.655 3.727 55.572 7.373 79.524 12.165 1.229 14.408 9.503 47.636 63.416 56.218 347.781 55.368 377.528 179.272 377.528 179.272h-480.809zM683.694 560.855c-14.612-15.647-32.236-29.409-54.927-40.53-61.972-30.362-118.979-38.513-197.048-48.118-12.636-1.556-201.38-24.791-201.38-123.3 0-85.268 150.764-109.261 191.345-114.176v73.226c-27.668 3.615-103.148 15.872-103.148 42.189 0 32.215 98.017 45.875 113.183 47.718 108.728 13.005 181.545 34.376 239.667 65.864 54.026 29.276 87.378 73.687 105.277 123.402-28.447-9.728-59.474-18.483-92.969-26.276zM541.020 292.905v-72.059c15.299-2.929 42.701-10.056 42.701-23.767 0-18.985-103.26-38.615-172.657-71.66s-92.529-82.596-92.529-82.596 25.6 21.463 80.957 36.342 257.761 32.44 257.761 124.436c0 65.792-86.252 84.716-116.234 89.303zM721.684-19.763c-50.442 16.742-126.28 22.743-168.94 44.401-22.118 11.223-32.020 28.396-31.805 49.777 0.020 1.628 0.031 4.813 0.041 9.083-26.624-6.574-52.849-11.5-75.203-15.688-1.567-0.287-3-0.573-4.526-0.85-1.956-17.93-11.94-32.44-31.416-42.322-42.65-21.658-118.497-27.658-168.95-44.401-52.603-17.48-66.918-44.001-66.918-44.001h614.656c-0.010 0-14.356 26.522-66.939 44.001zM441.559 378.46c-0.031-69.796-0.061-155.423-0.041-218.245 20.029 7.516 40.53 14.326 59.587 20.552 6.257 2.038 13.107 4.301 19.948 6.595 0.010 63.252-0.031 141.148-0.061 203.735-24.463-4.884-50.831-9.052-79.432-12.636z" />
<glyph unicode="&#xe64a;" glyph-name="uniE64A" d="M399.36 816.64h225.28c11.264 0 18.668 9.032 16.456 20.081l-12.442 62.239c-2.202 11.049-13.23 20.081-24.494 20.081h-184.32c-11.264 0-22.282-9.032-24.494-20.081l-12.452-62.239c-2.212-11.049 5.202-20.081 16.466-20.081zM1024 494.080c0 30.976-25.344 56.32-56.32 56.32h-67.348l-48.835 126.976c-12.134 31.539-48.64 64.942-81.142 74.23 0-0.010-84.275 24.074-258.355 24.074s-258.365-24.084-258.365-24.084c-32.492-9.288-68.997-42.68-81.132-74.23l-48.835-126.966h-67.348c-30.976 0-56.32-25.344-56.32-56.32s25.344-56.32 56.32-56.32h24.023l-17.326-45.056c-12.134-31.529-22.057-84.992-22.057-118.784v-266.24c0-39.424 32.256-71.68 71.68-71.68s71.68 32.256 71.68 71.68v40.96h655.36v-40.96c0-39.424 32.256-71.68 71.68-71.68s71.68 32.256 71.68 71.68v266.24c0 33.792-9.933 87.255-22.057 118.784l-17.336 45.056h24.033c30.976 0 56.32 25.344 56.32 56.32zM181.156 477.45l57.518 156.129c3.901 10.568 16.302 19.22 27.566 19.22h491.52c11.264 0 23.675-8.653 27.556-19.21l57.518-156.129c3.891-10.568-2.13-19.22-13.394-19.22h-634.88c-11.264 0-17.295 8.653-13.404 19.21zM179.2 222.72c-31.099 0-56.32 25.242-56.32 56.32s25.221 56.32 56.32 56.32 56.32-25.242 56.32-56.32-25.221-56.32-56.32-56.32zM844.8 222.72c-31.109 0-56.32 25.211-56.32 56.32s25.211 56.32 56.32 56.32 56.32-25.211 56.32-56.32-25.211-56.32-56.32-56.32z" />
<glyph unicode="&#xe64b;" glyph-name="uniE64B" horiz-adv-x="987" d="M952.224 318.003l-3.185 22.333c-3.072 17.265-7.66 33.372-14.612 46.203-25.876 47.759-223.037 297.513-279.716 313.713-9.482 2.714-34.703 9.001-64.307 9.001-40.643 0-73.779-11.868-95.857-34.335-19.917-20.265-30.72-48.517-32.164-84.111-27.976-12.79-96.87-47.596-115.855-87.675-9.574-20.214-49.326-38.257-81.275-52.777-25.702-11.674-47.903-21.76-61.481-34.304-7.291-6.728-17.183-16.732-28.59-28.283-32.481-32.87-81.572-82.555-110.735-94.843-33.014-13.896-54.835-36.465-56.965-58.89-1.137-12.012 3.83-22.958 13.302-29.266 17.060-11.366 78.961-19.866 122.911-19.866 9.267 0 18.217 0.348 26.542 1.085 24.986 2.284 115.456 4.127 201.667 4.127 103.137 0 149.678-2.519 158.208-4.68 17.879-4.526 33.905-4.291 57.375-2.519 15.36 1.126 33.249 2.447 59.648 1.976 27.105-0.532 52.132-1.587 72.735-2.478 18.33-0.768 33.229-1.413 43.151-1.413 6.666 0 10.916 0.266 13.834 0.809 1.075 0.133 6.605 0.573 32.717 0.573 46.725 0 122.194-1.382 122.235-1.382 9.882-0.143 17.080 6.636 18.248 15.811 0.451 3.676 7.946 64.522 2.171 121.19zM435.667 485.806c36.854 9.39 70.533 2.089 75.223-16.343 4.69-18.401-21.35-40.98-58.194-50.36-36.854-9.39-70.523-2.089-75.223 16.343-4.68 18.401 21.371 40.96 58.194 50.36zM258.648 394.496c35.615 3.011 65.618-10.035 67.011-29.184 1.423-19.128-26.296-37.14-61.891-40.151-35.615-3.021-65.618 10.035-67.011 29.194-1.403 19.139 26.296 37.11 61.891 40.141zM667.204 227.308c-1.014-2.191-1.495-4.465-1.567-6.717-5.827 0.164-11.735 0.307-17.787 0.44-4.188 0.072-8.161 0.102-11.971 0.102-21.883 0-38.083-1.208-51.087-2.181-18.76-1.423-31.693-2.048-45.814 1.505-18.872 4.792-101.274 5.786-167.066 5.786-88.596 0-178.616-1.874-204.943-4.27-6.134-0.563-12.82-0.737-19.579-0.809 67.574 26.378 147.231 52.009 170.639 46.551 13.855-3.297 24.197-6.789 33.331-9.861 21.381-7.219 38.308-12.923 68.864-3.369 8.571 2.683 17.398 6.185 26.317 9.769 31.345 12.534 51.599 19.292 68.608 7.363 38.881-27.228 70.656-22.548 101.386-18.104l2.396 0.328c22.907 3.359 45.855 0.246 51.18-6.881 2.396-3.195 1.341-10.373-2.908-19.651zM614.683 335.155c-45.732-3.389-84.265 10.936-86.108 32.061-1.853 21.115 33.71 41.001 79.421 44.401 45.711 3.43 84.275-10.936 86.118-32.051 1.843-21.094-33.72-41.011-79.432-44.411zM757.521 361.728c-7.455 25.262-18.729 51.005-35.625 64.276-41.902 32.932-94.075 76.851-114.821 101.366-2.755 3.246-57.876 67.461-107.694 72.049 2.365 21.422 9.298 38.298 20.951 50.145 19.108 19.436 48.66 23.521 70.083 23.521 25.057 0 46.356-5.325 54.364-7.598 32.635-9.318 177.213-178.862 236.861-263.578-20.081 8.151-43.305 10.271-68.823 0.696-25.876-9.687-43.274-23.613-55.296-40.878zM915.872 217.426c-24.986 0.389-72.919 1.085-106.312 1.085-30.351 0-35.82-0.553-38.81-1.085-1.393-0.215-3.543-0.317-6.226-0.358 0.133 2.345 0.266 4.864 0.369 7.168 4.188 86.047 8.253 124.908 60.621 144.527 44.298 16.65 76.585-22.733 89.088-41.677 5.366-36.598 3.758-81.316 1.27-109.66z" />
<glyph unicode="&#xe64c;" glyph-name="uniE64C" horiz-adv-x="768" d="M646.839 330.701c0 0-94.003-170.158-94.003-228.506 0-58.337 30.781-116.695 92.375-116.695 74.568 0 102.103 61.594 102.103 116.695s-100.475 228.506-100.475 228.506zM653.321 278.835c0 0 152.351-205.824 21.074-265.779 0 0-19.446 45.373 3.236 71.311 22.682 25.928-9.738 183.132-24.31 194.468zM-7.313 611.84h123.279c0 0 26.982-39.69 24.525-36.024-2.447 3.676 88.31 3.461 88.31 3.461l24.525 42.199 160.645 3.942c0 0 25.764-49.562 68.68-49.562 42.906 0 225.649 35.983 221.972-220.017h-114.063c0 0 18.412 98.089-95.652 89.487 0 0-133.673-130.447-299.233-17.807h-42.926l-35.574-20.48h-124.488v204.8zM207.727 693.76h256v-81.92h-256v81.92zM427.467 683.295c0 0-26.993 53.965-89.528 52.726-62.546-1.229-82.166-50.268-82.166-50.268l171.694-2.458zM320.367 714.24v71.68h-30.72v71.68h81.92v-71.68h-20.48v-71.68zM115.567 888.105v-110.377l174.080 40.468v29.43zM545.647 888.105v-110.377l-174.080 40.468v29.43zM415.456 603.75c0 0 29.092-50.913 130.929-41.82 101.827 9.093 129.096-118.19 129.096-118.19s-39.987 76.37-110.92 76.37c-70.912-0.010-141.824 27.269-149.105 83.64zM233.614 683.52h209.633v-48.855z" />
<glyph unicode="&#xe64d;" glyph-name="uniE64D" horiz-adv-x="805" d="M670.144 162.369c8.020-8.343 13.032-19.596 13.032-32.11 0-25.675-20.836-46.457-46.565-46.457-12.967 0-24.716 5.389-33.134 14.034-3.471 2.598-6.899 5.573-10.165 9.141-17.559 19.079-242.343 300.97-242.343 300.97-11.641 14.12-45.412 18.583-62.658 15.565-17.268-3.007-107.833 100.6-140.331 142.444-26.904 34.622-92.246 110.236-113.211 165.823-9.238 22.011-10.337 35.236-10.337 47.072 0 18.432 14.94 33.339 33.415 33.339 16.923 0 26.743-7.707 52.181-31.96 60.211-50.489 358.788-408.889 377.565-431.966 0 0 162.406-164.153 181.809-185.021 0.097-0.129 0.248-0.259 0.356-0.41 0.054-0.054 0.097-0.097 0.162-0.151 0.075-0.097 0.119-0.205 0.226-0.313zM122.11 164.826c-3.816-3.341-6.92-7.243-9.442-11.641-0.151-0.259-0.226-0.507-0.388-0.798-1.099-1.962-2.091-3.956-2.889-6.058-0.787-1.908-1.326-3.816-1.714-5.713-0.205-0.819-0.356-1.638-0.507-2.458-0.226-1.606-0.431-3.212-0.474-4.797-0.054-1.067-0.313-2.037-0.313-3.115 0-25.675 20.836-46.457 46.479-46.457 13.678 0 25.913 6.025 34.406 15.468 0.108 0.043 0.248 0.097 0.28 0.183 11.738 7.739 193.978 226.66 193.978 226.66l-40.432 49.012c0.011 0.011-194.614-185.851-218.985-210.286zM777.405 715.038c-0.453 0-0.808-0.302-1.164-0.474l-0.216 0.226c-0.14-0.162-0.248-0.366-0.453-0.463-0.043-0.108-0.151-0.205-0.259-0.334-55.641-60.524-147.445-152.932-151.574-148.437-4.182 4.538 137.087 165.769 137.087 165.769 0.981 0.916 1.638 2.199 1.638 3.622 0 2.781-2.253 5.055-5.066 5.055-1.326 0-3.363-1.337-3.363-1.337-0.065-0.043-0.065-0.075-0.065-0.075-0.043-0.097-0.097-0.183-0.205-0.226-0.108-0.129-147.704-153.234-152.091-148.857s137.281 165.597 137.281 165.597l-0.205 0.205c1.121 0.916 1.994 2.145 1.994 3.751 0 2.781-2.296 5.034-5.055 5.034-1.434 0-2.706-0.614-3.622-1.585l-0.054 0.108c-55.652-60.448-148.264-153.675-152.404-149.159-4.193 4.57 138.359 167.020 138.359 167.020 0.819 0.895 1.38 2.037 1.38 3.32 0 2.813-2.253 5.055-5.001 5.055-1.843 0-4.398-2.296-4.398-2.296-55.598-60.47-148.2-153.751-152.339-149.213-4.193 4.624 82.599 105.203 138.251 165.597l-0.259 0.226c0.216 0.388 0.474 0.69 0.474 1.175 0 1.585-1.337 2.889-2.921 2.889-0.561 0-1.078-0.302-1.541-0.658l-0.248 0.205c-46.5-25.956-138.693-117.544-161.307-142.12-36.81-39.979-34.158-97.054-34.158-97.054 4.441-18.303-2.652-43.601-15.629-56.212l-53.507-52.375 32.736-36.433 48.344 58.885c11.533 14.099 34.859 21.784 51.717 17.009 0 0 52.483-2.867 89.239 37.069 22.517 24.501 106.151 124.001 130.393 174.705 0.571 0.539 0.981 1.229 0.981 2.037 0 1.498-1.229 2.749-2.77 2.749z" />
</font>
</defs>
</svg>
